<?xml version="1.0" standalone="no"?>
<!DOCTYPE svg PUBLIC "-//W3C//DTD SVG 1.1//EN" "http://www.w3.org/Graphics/SVG/1.1/DTD/svg11.dtd" >
<svg xmlns="http://www.w3.org/2000/svg">
<metadata>
Created by FontPrep 20130207 at Thu Oct  6 23:08:41 2016
 By Chris McElroy
Copyright (c) 1981, 1982, 1983, 1989 and 1993, Linotype Library GmbH or its affiliated Linotype-Hell companies. All rights reserved.

The digitally encoded machine readable software for producing the Typefaces licensed to you is now the property of Heidelberger Druckmaschinen AG and its licensors, and may not be reproduced, used, displayed, modified, disclosed or transferred without the express written approval of Heidelberger Druckmaschinen AG.

Copyright (c) 1988, 1990, 1993 Adobe Systems Incorporated. All Rights Reserved.
</metadata>
<defs>
<font id="453667434e93dceb51173a1d61030e95" horiz-adv-x='1024' >
  <font-face 
    font-family="HelveticaNeue-CondensedBold"
    font-weight="700"
    font-stretch="condensed"
    units-per-em="2048"
    panose-1="2 0 8 6 0 0 0 2 0 4"
    ascent="1638"
    descent="-410"
    x-height="1102"
    cap-height="1462"
    bbox="-676 -688 2531 2429"
    underline-thickness="102"
    underline-position="-153"
    unicode-range="U+0008-FB02"
  />
<missing-glyph horiz-adv-x="1024" 
d="M905 16v1016h-786v-1016h786zM102 1049h820v-1049h-820v1049z" />
    <glyph glyph-name="fi" unicode="fi" horiz-adv-x="1099" 
d="M156 909h-144v193h144v125q0 209 113.5 236.5t185.5 27.5t147 -6v-201q-10 2 -29 2h-26q-59 0 -84 -20.5t-25 -67.5v-96h164v-193h-164v-909h-282v909zM713 1479h282v-242h-282v242zM713 1102h282v-1102h-282v1102z" />
    <glyph glyph-name="fl" unicode="fl" horiz-adv-x="1099" 
d="M156 909h-144v193h144v125q0 209 113.5 236.5t185.5 27.5t147 -6v-201q-10 2 -29 2h-26q-59 0 -84 -20.5t-25 -67.5v-96h164v-193h-164v-909h-282v909zM713 1479h282v-1479h-282v1479z" />
    <glyph glyph-name=".notdef" horiz-adv-x="1024" 
d="M905 16v1016h-786v-1016h786zM102 1049h820v-1049h-820v1049z" />
    <glyph glyph-name=".null" horiz-adv-x="0" 
 />
    <glyph glyph-name="nonmarkingreturn" horiz-adv-x="681" 
 />
    <glyph glyph-name="controlBS" horiz-adv-x="0" 
 />
    <glyph glyph-name="controlHT" unicode="&#x9;" horiz-adv-x="491" 
 />
    <glyph glyph-name="controlCR" unicode="&#xd;" horiz-adv-x="491" 
 />
    <glyph glyph-name="controlGS" horiz-adv-x="0" 
 />
    <glyph glyph-name="space" unicode=" " horiz-adv-x="491" 
 />
    <glyph glyph-name="exclam" unicode="!" horiz-adv-x="606" 
d="M444 270v-270h-282v270h282zM162 1462h282v-475l-38 -579h-205l-39 579v475z" />
    <glyph glyph-name="quotedbl" unicode="&#x22;" horiz-adv-x="948" 
d="M147 1462h254v-657h-254v657zM547 1462h254v-657h-254v657z" />
    <glyph glyph-name="numbersign" unicode="#" horiz-adv-x="983" 
d="M377 586h198l33 250h-200zM0 586h178l33 250h-150v229h177l45 356h196l-43 -356h199l45 356h199l-45 -356h149v-229h-176l-33 -250h150v-230h-176l-46 -356h-198l45 356h-201l-43 -356h-199l46 356h-152v230z" />
    <glyph glyph-name="dollar" unicode="$" horiz-adv-x="983" 
d="M930 1063v-29h-283q-2 78 -22.5 130.5t-73.5 68.5v-387l162 -66q129 -57 190.5 -135t61.5 -235q0 -221 -105.5 -319.5t-308.5 -113.5v-178h-131v178q-240 19 -321 125.5t-81 288.5v43h283q0 -107 23 -166.5t96 -79.5v414l-103 37q-150 53 -215 152.5t-65 240.5
q0 190 99.5 294t283.5 124v141h131v-141q379 -33 379 -387zM320 1083q0 -121 100 -178v328q-100 -29 -100 -150zM670 351q0 137 -119 200v-363q119 26 119 163z" />
    <glyph glyph-name="percent" unicode="%" horiz-adv-x="1593" 
d="M1118 1485h182l-831 -1542h-182zM272 1061q0 -117 14.5 -177.5t76 -60.5t76 60.5t14.5 177.5t-14.5 175t-76 58t-76 -58t-14.5 -175zM55 1059q0 209 61.5 300t245.5 91t246 -91t62 -300t-62 -300t-246 -91t-245.5 91t-61.5 300zM1231 754q183 0 245 -91.5t62 -300.5
t-61 -297t-246 -88t-246 87t-61 298t62 301.5t245 90.5zM1141 365q0 -117 14 -177.5t75.5 -60.5t76 60.5t14.5 177.5t-14.5 175t-76 58t-75.5 -58t-14 -175z" />
    <glyph glyph-name="ampersand" unicode="&#x26;" horiz-adv-x="1214" 
d="M460 -23q-124 0 -279.5 70.5t-155.5 345.5q0 237 294 422l-51 76q-82 119 -90 176t-8 109t27.5 107.5t103.5 117t249 61.5t265 -86t92 -208t-62.5 -210t-191.5 -180l219 -297q52 106 52 221h254q0 -216 -150 -432l193 -270h-314l-82 113q-113 -136 -365 -136zM307 410
q0 -140 78 -174.5t127 -34.5q117 0 190 92l-245 348q-150 -116 -150 -231zM412 1161q0 -59 73 -157l35 -50l53 45q93 79 93 149t-36 102t-91 32t-91 -31t-36 -90z" />
    <glyph glyph-name="quotesingle" unicode="'" horiz-adv-x="532" 
d="M139 1462h254v-657h-254v657z" />
    <glyph glyph-name="parenleft" unicode="(" horiz-adv-x="606" 
d="M102 545q0 465 287 917h217q-187 -348 -210 -568t-23 -421t53 -404.5t180 -439.5h-217q-287 451 -287 916z" />
    <glyph glyph-name="parenright" unicode=")" horiz-adv-x="606" 
d="M504 545.5q0 -465.5 -287 -916.5h-217q188 349 210.5 566t22.5 415.5t-51.5 405.5t-181.5 446h217q287 -451 287 -916.5z" />
    <glyph glyph-name="asterisk" unicode="*" horiz-adv-x="798" 
d="M483 1462v-262l250 82l51 -160l-249 -82l155 -213l-137 -98l-154 213l-153 -213l-137 98l155 213l-250 82l52 160l249 -82v262h168z" />
    <glyph glyph-name="plus" unicode="+" horiz-adv-x="1228" 
d="M487 391h-391v254h391v391h254v-391h392v-254h-392v-391h-254v391z" />
    <glyph glyph-name="comma" unicode="," horiz-adv-x="491" 
d="M381 319v-266q0 -175 -59.5 -272.5t-210.5 -112.5v144q53 10 79.5 57t26.5 104v27h-106v319h270z" />
    <glyph glyph-name="hyphen" unicode="-" horiz-adv-x="757" 
d="M668 713v-242h-578v242h578z" />
    <glyph glyph-name="period" unicode="." horiz-adv-x="491" 
d="M381 319v-319h-270v319h270z" />
    <glyph glyph-name="slash" unicode="/" horiz-adv-x="679" 
d="M457 1491h229l-463 -1514h-223z" />
    <glyph glyph-name="zero" unicode="0" horiz-adv-x="983" 
d="M37 656q0 172 10 311t55 246.5t136.5 172t239.5 64.5t234.5 -38t160 -156.5t73.5 -510.5q0 -152 -10 -291t-55 -246.5t-136.5 -169t-237.5 -61.5t-234.5 35t-140.5 119t-73.5 218.5t-21.5 306.5zM332 612q0 -273 25.5 -342t56 -87.5t78.5 -18.5t79 23.5t55.5 102.5
t24.5 361v158q0 273 -25.5 342.5t-56 87.5t-78.5 18q-95 0 -127 -102t-32 -385v-158z" />
    <glyph glyph-name="one" unicode="1" horiz-adv-x="983" 
d="M373 0v1024h-289v193h27q147 0 232 55t108 178h217v-1450h-295z" />
    <glyph glyph-name="two" unicode="2" horiz-adv-x="983" 
d="M37 1030q1 420 443 420t442 -300.5t-82 -400.5t-144 -155l-164 -152q-124 -111 -149 -213h547v-229h-893q0 272 119.5 416.5t199.5 218.5l119 110q94 83 123 149.5t29 182.5q0 180 -142 180t-154 -112.5t-12 -169.5h-282v55z" />
    <glyph glyph-name="three" unicode="3" horiz-adv-x="983" 
d="M494 1257q-101 0 -131.5 -58.5t-30.5 -176.5h-271q0 428 426 428q418 0 418 -373q0 -131 -58.5 -214t-162.5 -105v-4q141 -23 199.5 -114t58.5 -228q0 -297 -165 -366t-316 -69q-211 0 -315.5 115t-104.5 326v6h283q2 -127 33.5 -193.5t127.5 -66.5q140 0 151 93t11 141
q0 113 -39.5 180t-150.5 67h-99v193h97q125 0 146.5 92t21.5 137q1 190 -129 190z" />
    <glyph glyph-name="four" unicode="4" horiz-adv-x="983" 
d="M815 1450v-920h139v-229h-139v-301h-270v301h-516v242l481 907h305zM545 1081h-4l-283 -551h287v551z" />
    <glyph glyph-name="five" unicode="5" horiz-adv-x="983" 
d="M463 176q172 0 172 257q0 204 -35.5 268.5t-134.5 64.5q-122 0 -139 -133h-265l54 788h755v-229h-534l-31 -330h4q79 109 269 109t271 -132.5t81 -330.5q0 -263 -100 -397t-358 -134t-346.5 118.5t-88.5 279.5v39h282q0 -238 144 -238z" />
    <glyph glyph-name="six" unicode="6" horiz-adv-x="983" 
d="M501 164q97 0 127.5 73t30.5 217t-36.5 207.5t-123.5 63.5t-124 -63.5t-37 -207.5t23.5 -195.5t55.5 -73t84 -21.5zM512 1257q-116 0 -152 -91.5t-36 -276.5v-72h4q81 125 272 125q354 0 354 -453q0 -252 -112 -382t-372 -130t-336.5 146.5t-90.5 269.5t-14 267t9 288
t55 255.5t144.5 179t278.5 67.5q275 0 338.5 -132t65.5 -237h-283q-1 176 -125 176z" />
    <glyph glyph-name="seven" unicode="7" horiz-adv-x="983" 
d="M938 1421v-225q-168 -237 -278 -552t-148 -644h-309q56 459 201 740.5t251 426.5h-610v254h893z" />
    <glyph glyph-name="eight" unicode="8" horiz-adv-x="983" 
d="M491.5 664q-167.5 0 -167.5 -250q0 -120 26.5 -165.5t59 -65t103 -19.5t108.5 65t38 185q0 250 -167.5 250zM348 1059q0 -104 39 -153.5t104.5 -49.5t104.5 49t39 154q0 199 -143.5 199t-143.5 -199zM66 1051q0 213 113.5 306t312 93t312.5 -93t114 -306q0 -147 -76 -206
t-133 -73v-4q123 -25 184 -123t61 -254t-97 -285t-366 -129t-365.5 129t-96.5 285t61.5 254t183.5 123v4q-107 25 -157.5 105.5t-50.5 173.5z" />
    <glyph glyph-name="nine" unicode="9" horiz-adv-x="983" 
d="M484 696q87 0 124 63.5t37 208.5t-23.5 195.5t-55.5 72t-84 21.5q-97 0 -127.5 -71.5t-30.5 -216.5t36.5 -209t123.5 -64zM346 338q0 -174 126 -174q66 0 101 27.5t60.5 91.5t25.5 249v70h-4q-83 -123 -272 -123q-271 0 -312.5 177.5t-41.5 275.5q0 252 111.5 385
t370.5 133t337 -149.5t92 -273t14 -267.5t-9 -288t-55 -255t-145.5 -175.5t-279.5 -64.5q-392 0 -402 361h283z" />
    <glyph glyph-name="colon" unicode=":" horiz-adv-x="491" 
d="M111 1067h270v-319h-270v319zM111 319h270v-319h-270v319z" />
    <glyph glyph-name="semicolon" unicode=";" horiz-adv-x="491" 
d="M381 1067v-319h-270v319h270zM381 319v-266q0 -175 -59.5 -272.5t-210.5 -112.5v144q53 10 79.5 57t26.5 104v27h-106v319h270z" />
    <glyph glyph-name="less" unicode="&#x3c;" horiz-adv-x="1228" 
d="M96 627l1037 426v-254l-693 -281l693 -280v-248l-1037 420v217z" />
    <glyph glyph-name="equal" unicode="=" horiz-adv-x="1228" 
d="M96 422h1037v-254h-1037v254zM96 868h1037v-254h-1037v254z" />
    <glyph glyph-name="greater" unicode="&#x3e;" horiz-adv-x="1228" 
d="M96 238l692 280l-692 281v254l1037 -426v-217l-1037 -420v248z" />
    <glyph glyph-name="question" unicode="?" horiz-adv-x="985" 
d="M614 270v-270h-282v270h282zM489 1286q-145 0 -145 -225v-51h-270v47q0 295 152.5 358.5t252.5 63.5q217 0 324.5 -107.5t107.5 -288.5q0 -86 -27.5 -159.5t-101.5 -159.5l-82 -92q-53 -59 -76.5 -108.5t-23.5 -127.5v-30h-254v79q0 102 28.5 173t98.5 149l78 88
q78 85 78 217q0 78 -35 126t-105 48z" />
    <glyph glyph-name="at" unicode="@" horiz-adv-x="1638" 
d="M821 1137q162 0 248 -138l27 109h180l-119 -512q-12 -57 -12 -84q0 -41 41 -41q69 0 141 104t72 229q0 223 -162.5 358.5t-392.5 135.5t-392.5 -172.5t-162.5 -400.5t170.5 -394.5t420.5 -166.5q212 0 433 131h182q-229 -318 -676 -318q-158 0 -296 57.5t-241.5 160
t-163 240.5t-59.5 296t59.5 296t163 241.5t242 163t294.5 59.5q320 0 540.5 -174.5t220.5 -446.5q0 -197 -93 -329.5t-215.5 -194t-205.5 -61.5q-123 0 -133 108h-4q-103 -108 -234 -108t-221 97t-90 251q0 199 123.5 351.5t314.5 152.5zM612 656q0 -56 40 -105t100 -49
q106 0 174.5 82t68.5 164t-45 127t-101 45t-98 -24t-73 -60.5t-48.5 -80t-17.5 -99.5z" />
    <glyph glyph-name="A" unicode="A" 
d="M713 551l-142 657h-4l-141 -657h287zM752 1462l387 -1462h-308l-67 309h-389l-68 -309h-307l387 1462h365z" />
    <glyph glyph-name="B" unicode="B" 
d="M750 438q0 219 -226 219h-127v-440h115q106 0 172 47t66 174zM397 862h84q123 0 179.5 44t56.5 148.5t-51.5 147.5t-161.5 43h-107v-383zM596 1462q416 0 416 -370q0 -119 -55.5 -204t-165.5 -116v-4q123 -16 194.5 -104.5t71.5 -235.5q0 -296 -164 -362t-293 -66h-498
v1462h494z" />
    <glyph glyph-name="C" unicode="C" horiz-adv-x="1099" 
d="M727 969q0 160 -38 232.5t-142 72.5t-142 -122.5t-38 -364.5t11 -344.5t42.5 -178.5t128.5 -76q96 0 143 76.5t47 294.5h295q0 -273 -97 -427.5t-368 -154.5q-166 0 -264 53.5t-150.5 154t-67.5 239.5t-15 306t15 307.5t97 297t374 156.5t378 -150t86 -372h-295z" />
    <glyph glyph-name="D" unicode="D" horiz-adv-x="1175" 
d="M412 217h131q78 0 125 26.5t83.5 108.5t36.5 374t-46.5 405.5t-204.5 113.5h-125v-1028zM117 1462h483q286 0 384.5 -175t98.5 -556t-108.5 -556t-392.5 -175h-465v1462z" />
    <glyph glyph-name="E" unicode="E" horiz-adv-x="985" 
d="M920 1462v-241h-523v-344h492v-242h-492v-393h543v-242h-838v1462h818z" />
    <glyph glyph-name="F" unicode="F" horiz-adv-x="948" 
d="M102 1462h818v-241h-523v-344h492v-242h-492v-635h-295v1462z" />
    <glyph glyph-name="G" unicode="G" 
d="M752 1028q0 94 -30 146.5t-61.5 76t-76.5 23.5q-106 0 -153.5 -119t-47.5 -400t29.5 -384t69.5 -143t103 -40t123 62t60 172v149h-195v217h478v-788h-217v135h-5q-53 -86 -127.5 -122t-194.5 -36t-205 47.5t-133 145.5t-64.5 242t-16.5 332q0 389 110 568t367 179
t363 -120t106 -343h-282z" />
    <glyph glyph-name="H" unicode="H" 
d="M102 1462h295v-559h344v559h295v-1462h-295v649h-344v-649h-295v1462z" />
    <glyph glyph-name="I" unicode="I" horiz-adv-x="528" 
d="M117 0v1462h295v-1462h-295z" />
    <glyph glyph-name="J" unicode="J" horiz-adv-x="948" 
d="M858 1462v-1052q0 -233 -108.5 -333t-328.5 -100t-305 111.5t-85 310.5v64h270v-45q0 -117 25.5 -173.5t105.5 -56.5t105.5 56.5t25.5 173.5v1044h295z" />
    <glyph glyph-name="K" unicode="K" horiz-adv-x="1099" 
d="M397 1462v-585h4l373 585h320l-398 -626l443 -836h-332l-301 600l-109 -166v-434h-295v1462h295z" />
    <glyph glyph-name="L" unicode="L" horiz-adv-x="948" 
d="M102 0v1462h295v-1220h523v-242h-818z" />
    <glyph glyph-name="M" unicode="M" horiz-adv-x="1515" 
d="M109 1462h438l209 -1032h4l211 1032h436v-1462h-270v1167h-4l-261 -1167h-229l-260 1167h-4v-1167h-270v1462z" />
    <glyph glyph-name="N" unicode="N" horiz-adv-x="1175" 
d="M803 461v1001h270v-1462h-336l-360 1024h-4v-1024h-271v1462h340l357 -1001h4z" />
    <glyph glyph-name="O" unicode="O" 
d="M367 731.5q0 -147.5 7 -251t28.5 -168t61.5 -94.5t105.5 -30t105.5 30t61.5 94.5t28.5 168t7 251t-7 249.5t-28.5 167.5t-61.5 95.5t-105.5 30t-105.5 -30t-61.5 -95.5t-28.5 -167.5t-7 -249.5zM72 730q0 167 15 307.5t67.5 240.5t150.5 156.5t264 56.5t264.5 -56.5
t150.5 -156.5t67.5 -240.5t15.5 -307.5t-15.5 -306t-67.5 -239.5t-150.5 -154t-264.5 -53.5t-264 53.5t-150.5 154t-67.5 239.5t-15 306z" />
    <glyph glyph-name="P" unicode="P" horiz-adv-x="1062" 
d="M397 801h131q88 0 142.5 53t54.5 165t-47 169t-158 57h-123v-444zM102 1462h516q208 0 305 -125.5t97 -312.5q0 -329 -180.5 -384.5t-284.5 -55.5h-158v-584h-295v1462z" />
    <glyph glyph-name="Q" unicode="Q" 
d="M367 731.5q0 -147.5 7 -251t28.5 -168t61.5 -94.5t105.5 -30t105.5 30t61.5 94.5t28.5 168t7 251t-7 249.5t-28.5 167.5t-61.5 95.5t-105.5 30t-105.5 -30t-61.5 -95.5t-28.5 -167.5t-7 -249.5zM542 -23q-140 0 -237.5 53.5t-150 154t-67.5 239.5t-15 306t15 307.5
t67.5 240.5t150.5 156.5t264 56.5t264.5 -56.5t150.5 -156.5t67.5 -240.5t15.5 -316.5t-20.5 -327.5t-92.5 -256.5l158 -153l-174 -158l-174 174q-82 -23 -222 -23z" />
    <glyph glyph-name="R" unicode="R" 
d="M1036 1085q0 -308 -243 -360v-4q111 -16 162 -71.5t63 -178.5q6 -53 10 -183t14 -191.5t52 -84.5v-12h-320q-32 43 -37 154l-8 280q-4 86 -43 135t-131 49h-158v-618h-295v1462h545q184 0 286.5 -93t102.5 -284zM397 823h123q106 0 163.5 50.5t57.5 168.5q0 203 -204 203
h-140v-422z" />
    <glyph glyph-name="S" unicode="S" horiz-adv-x="1062" 
d="M1018 420q0 -443 -508 -443q-250 0 -357.5 109t-107.5 311v60h295v-43q0 -114 43.5 -170t151.5 -56q68 0 122 44t54 138t-55 146t-180 94t-197 80.5t-142.5 115t-70.5 274.5t120.5 304.5t331.5 106.5q322 0 387.5 -144.5t65.5 -248.5v-41h-283q0 104 -37 160.5t-125 56.5
t-127 -47t-39 -119t29 -118t123 -85l227 -98q159 -70 219 -158t60 -229z" />
    <glyph glyph-name="T" unicode="T" horiz-adv-x="983" 
d="M958 1462v-241h-319v-1221h-295v1221h-319v241h933z" />
    <glyph glyph-name="U" unicode="U" horiz-adv-x="1101" 
d="M379 1462v-1020q0 -123 37.5 -188.5t134.5 -65.5q142 0 157 99.5t15 154.5v1020h295v-1020q0 -257 -127 -361t-341 -104t-340 97t-126 368v1020h295z" />
    <glyph glyph-name="V" unicode="V" horiz-adv-x="1062" 
d="M322 1462l206 -1081h7l217 1081h305l-336 -1462h-379l-336 1462h316z" />
    <glyph glyph-name="W" unicode="W" horiz-adv-x="1556" 
d="M16 1462h283l162 -1081h4l172 1081h283l172 -1081h4l161 1081h283l-266 -1462h-330l-164 1061h-4l-164 -1061h-329z" />
    <glyph glyph-name="X" unicode="X" horiz-adv-x="1099" 
d="M41 1462h326l188 -473l186 473h322l-340 -723l364 -739h-331l-211 496l-209 -496h-324l365 739z" />
    <glyph glyph-name="Y" unicode="Y" horiz-adv-x="1064" 
d="M680 0h-295v575l-379 887h332l192 -565h5l204 565h320l-379 -887v-575z" />
    <glyph glyph-name="Z" unicode="Z" horiz-adv-x="985" 
d="M86 1221v241h842v-223l-547 -997h555v-242h-887v215l539 1006h-502z" />
    <glyph glyph-name="bracketleft" unicode="[" horiz-adv-x="645" 
d="M164 1462h469v-205h-215v-1423h215v-205h-469v1833z" />
    <glyph glyph-name="backslash" unicode="\" horiz-adv-x="679" 
d="M0 1491h223l463 -1514h-229z" />
    <glyph glyph-name="bracketright" unicode="]" horiz-adv-x="645" 
d="M12 -166h215v1423h-215v205h469v-1833h-469v205z" />
    <glyph glyph-name="asciicircum" unicode="^" horiz-adv-x="1228" 
d="M115 633l385 788h229l385 -788h-254l-246 506l-245 -506h-254z" />
    <glyph glyph-name="underscore" unicode="_" horiz-adv-x="1024" 
d="M0 -250v103h1024v-103h-1024z" />
    <glyph glyph-name="grave" unicode="`" horiz-adv-x="454" 
d="M168 1231l-195 295h277l110 -295h-192z" />
    <glyph glyph-name="a" unicode="a" horiz-adv-x="985" 
d="M434 164q112 0 143 62.5t31 107.5v217q-49 -39 -128 -56q-152 -33 -152 -182t106 -149zM338 -23q-156 0 -218.5 92.5t-62.5 194.5t16.5 157.5t63.5 111t199 98.5l160 43q63 16 87.5 45t24.5 88q0 131 -131 131q-66 0 -98.5 -39t-32.5 -104v-31h-254v27q0 177 105 258
t257 81t230 -24.5t136.5 -85.5t58.5 -227v-580q0 -130 34 -213h-270q-19 36 -35 115h-4q-49 -86 -113.5 -112t-152.5 -26z" />
    <glyph glyph-name="b" unicode="b" horiz-adv-x="1024" 
d="M631 1130q161 0 243 -136t82 -443t-81.5 -440.5t-256.5 -133.5q-86 0 -144 31t-105 109h-4v-117h-271v1462h283v-463h4q89 131 250 131zM377 551q0 -180 27.5 -271.5t120.5 -91.5t121 91.5t28 271.5t-28 271t-121 91t-120.5 -91t-27.5 -271z" />
    <glyph glyph-name="c" unicode="c" horiz-adv-x="948" 
d="M625 705q0 221 -127 221q-100 0 -131 -87t-31 -295t30 -294t112 -86t114.5 61.5t32.5 196.5h270q0 -217 -97.5 -331t-322.5 -114q-106 0 -185 26t-158 126t-79 422q0 466 174 522.5t273 56.5q197 0 296 -114.5t99 -310.5h-270z" />
    <glyph glyph-name="d" unicode="d" horiz-adv-x="1024" 
d="M392 1130q161 0 251 -131h4v463h283v-1462h-271v117h-4q-47 -78 -105 -109t-144 -31q-174 0 -256 133.5t-82 440.5t81.5 443t242.5 136zM350 551q0 -180 28 -271.5t121 -91.5t120.5 91.5t27.5 271.5t-27.5 271t-120.5 91t-121 -91t-28 -271z" />
    <glyph glyph-name="e" unicode="e" horiz-adv-x="948" 
d="M463.5 938q-60.5 0 -94 -64.5t-33.5 -154.5v-43h289q-4 136 -24.5 181.5t-48.5 63t-88.5 17.5zM336 508v-88q0 -175 50 -215.5t89 -40.5q72 0 104.5 51t45.5 156h254q-8 -193 -102.5 -293.5t-297.5 -100.5q-275 0 -341 135.5t-75.5 239.5t-9.5 212q0 259 88.5 412.5
t350.5 153.5q334 0 368.5 -216t34.5 -343v-63h-559z" />
    <glyph glyph-name="f" unicode="f" horiz-adv-x="606" 
d="M156 909h-144v193h144v125q0 209 113.5 236.5t185.5 27.5t147 -6v-201q-10 2 -29 2h-26q-59 0 -84 -20.5t-25 -67.5v-96h164v-193h-164v-909h-282v909z" />
    <glyph glyph-name="g" unicode="g" horiz-adv-x="1024" 
d="M649 568q0 178 -31.5 261.5t-118.5 83.5t-116 -82.5t-29 -226.5t5.5 -196t29.5 -115.5t107.5 -63.5t118 80.5t34.5 258.5zM494 -190q155 0 155 192v145h-4q-43 -61 -105.5 -98t-129.5 -37q-168 0 -253 128t-85 402t69.5 431t276.5 157q59 0 122.5 -32.5t104.5 -118.5h4
v123h271v-1047q0 -213 -105.5 -319.5t-353.5 -106.5q-180 0 -277.5 77t-97.5 218h270q0 -77 55.5 -95.5t82.5 -18.5z" />
    <glyph glyph-name="h" unicode="h" horiz-adv-x="1024" 
d="M649 1130q281 0 281 -313v-817h-283v760q0 86 -28.5 119.5t-92.5 33.5q-150 0 -149 -182v-731h-283v1462h283v-473h4q82 141 268 141z" />
    <glyph glyph-name="i" unicode="i" horiz-adv-x="491" 
d="M104 1479h283v-242h-283v242zM104 1102h283v-1102h-283v1102z" />
    <glyph glyph-name="j" unicode="j" horiz-adv-x="491" 
d="M104 1479h283v-242h-283v242zM0 -150q70 0 87 42t17 128v1082h283v-1172q0 -146 -71 -215t-228 -69q-70 0 -133 4v205q12 -4 22 -5h23z" />
    <glyph glyph-name="k" unicode="k" horiz-adv-x="1024" 
d="M387 1462v-772h4l285 412h311l-317 -434l364 -668h-311l-236 453l-100 -131v-322h-283v1462h283z" />
    <glyph glyph-name="l" unicode="l" horiz-adv-x="491" 
d="M104 1462h283v-1462h-283v1462z" />
    <glyph glyph-name="m" unicode="m" horiz-adv-x="1552" 
d="M1176 770q0 143 -111 143q-68 0 -107.5 -45t-39.5 -143v-725h-283v770q0 70 -25.5 106.5t-89.5 36.5t-103.5 -45t-39.5 -143v-725h-283v1102h271v-113h4q53 76 119.5 108.5t161.5 32.5t162 -45t89 -131h4q66 176 279 176q274 0 274 -329v-801h-282v770z" />
    <glyph glyph-name="n" unicode="n" horiz-adv-x="1024" 
d="M649 1130q281 0 281 -313v-817h-283v760q0 86 -28.5 119.5t-92.5 33.5q-150 0 -149 -182v-731h-283v1102h271v-129h4q86 157 280 157z" />
    <glyph glyph-name="o" unicode="o" horiz-adv-x="983" 
d="M487 164q91 0 123.5 90t32.5 297t-32.5 297t-118.5 90q-135 0 -143.5 -151.5t-8.5 -293.5t28 -235.5t119 -93.5zM926 554q0 -298 -98.5 -437.5t-340.5 -141.5t-336 135.5t-94 435.5t100.5 441t340.5 145t334 -139t94 -439z" />
    <glyph glyph-name="p" unicode="p" horiz-adv-x="1024" 
d="M94 1102h271v-117h4q47 78 105 111.5t144 33.5q174 0 256 -136t82 -443t-81.5 -440.5t-256.5 -133.5q-80 0 -136 30t-101 95h-4v-456h-283v1456zM377 551q0 -180 27.5 -271.5t120.5 -91.5t121 91.5t28 271.5t-28 271t-121 91t-120.5 -91t-27.5 -271z" />
    <glyph glyph-name="q" unicode="q" horiz-adv-x="1024" 
d="M68 551q0 307 81.5 443t256.5 136q86 0 144 -33.5t105 -111.5h4v117h271v-1456h-283v456h-4q-85 -125 -248 -125t-245 133.5t-82 440.5zM647 551q0 180 -27.5 271t-120.5 91t-121 -91t-28 -271t28 -271.5t121 -91.5t120.5 91.5t27.5 271.5z" />
    <glyph glyph-name="r" unicode="r" horiz-adv-x="681" 
d="M588 860q-88 0 -149.5 -48t-61.5 -150v-662h-283v1102h271v-148h4q95 176 254 176q27 0 51 -4v-270q-47 4 -86 4z" />
    <glyph glyph-name="s" unicode="s" horiz-adv-x="909" 
d="M301 360v-36q0 -72 38 -116t107 -44q146 0 146 131q0 53 -31 80.5t-72 44.5l-198 72q-236 83 -236 309t148.5 277.5t257.5 51.5q193 0 285 -81.5t92 -231.5v-45h-254q0 86 -28 126t-89 40t-101 -30t-40 -80t25.5 -82.5t97.5 -55.5l169 -57q133 -45 188.5 -118t55.5 -179
q0 -359 -409 -359q-230 0 -318 86t-88 259v38h254z" />
    <glyph glyph-name="t" unicode="t" horiz-adv-x="606" 
d="M156 279v630h-144v193h144v315h282v-315h164v-193h-164v-596q0 -66 20 -93t68 -27t76 4v-197l-184 -6q-82 0 -134.5 11t-90 57.5t-37.5 216.5z" />
    <glyph glyph-name="u" unicode="u" horiz-adv-x="1024" 
d="M94 285v817h283v-760q0 -86 28.5 -120t92.5 -34q150 0 149 183v731h283v-1102h-271v129h-4q-83 -152 -280 -152q-135 0 -208 71t-73 237z" />
    <glyph glyph-name="v" unicode="v" horiz-adv-x="909" 
d="M616 1102h283l-276 -1102h-328l-285 1102h295l158 -789h4z" />
    <glyph glyph-name="w" unicode="w" horiz-adv-x="1441" 
d="M14 1102h283l129 -783h4l137 783h307l146 -783h4l133 783h270l-237 -1102h-322l-145 782h-4l-137 -782h-328z" />
    <glyph glyph-name="x" unicode="x" horiz-adv-x="946" 
d="M625 1102h295l-287 -535l299 -567h-295l-164 360l-164 -360h-295l299 567l-286 535h295l151 -332z" />
    <glyph glyph-name="y" unicode="y" horiz-adv-x="909" 
d="M209 -354h-115v211q36 -7 94 -7t91.5 41t39.5 109l-309 1102h295l164 -762h4l143 762h283l-266 -1028q-37 -137 -71 -222t-80 -131.5t-110.5 -60.5t-162.5 -14z" />
    <glyph glyph-name="z" unicode="z" horiz-adv-x="872" 
d="M70 872v230h753v-217l-440 -656h440v-229h-774v217l440 655h-419z" />
    <glyph glyph-name="braceleft" unicode="{" horiz-adv-x="645" 
d="M61 627q51 0 93.5 47t42.5 119v395q0 131 54 202.5t159 71.5h182v-205h-62q-49 0 -64 -44t-15 -103v-340q0 -92 -41 -152.5t-107 -72.5v-4q66 -12 107 -72.5t41 -153.5v-333q0 -59 15 -103.5t64 -44.5h62v-205h-182q-104 0 -158.5 72t-54.5 203v389q0 72 -42 119t-94 47
v168z" />
    <glyph glyph-name="bar" unicode="|" horiz-adv-x="454" 
d="M100 1491h254v-1514h-254v1514z" />
    <glyph glyph-name="braceright" unicode="}" horiz-adv-x="645" 
d="M53 -166h62q49 0 64.5 44t15.5 104v333q0 92 40.5 152.5t106.5 73.5v4q-66 12 -106.5 72.5t-40.5 152.5v340q0 59 -15.5 103t-64.5 44h-62v205h183q104 0 158.5 -71.5t54.5 -202.5v-395q0 -72 41.5 -119t93.5 -47v-168q-51 0 -93 -47t-42 -119v-389q0 -131 -54.5 -203
t-158.5 -72h-183v205z" />
    <glyph glyph-name="asciitilde" unicode="~" horiz-adv-x="1228" 
d="M835 575q49 0 104 46.5t75 93.5l73 -217q-93 -176 -240 -176q-121 0 -253 70t-190 69q-58 0 -113 -46.5t-76 -92.5l-74 217q41 78 101 126.5t160 48.5t199 -52t142 -69.5t92 -17.5z" />
    <glyph glyph-name="nonbreakingspace" unicode="&#xa0;" horiz-adv-x="491" 
 />
    <glyph glyph-name="exclamdown" unicode="&#xa1;" horiz-adv-x="606" 
d="M162 1102h282v-271h-282v271zM444 -354h-282v469l39 579h205l38 -579v-469z" />
    <glyph glyph-name="cent" unicode="&#xa2;" horiz-adv-x="983" 
d="M645 428h270q0 -205 -81.5 -316.5t-272.5 -134.5v-180h-106v180q-188 9 -287.5 128.5t-99.5 412.5t80 443.5t307 168.5v156h106v-156q157 -9 255.5 -100t98.5 -317h-270q0 181 -84 213v-750q84 49 84 252zM350 553q0 -162 17.5 -258.5t87.5 -118.5v750
q-68 -25 -86.5 -118t-18.5 -255z" />
    <glyph glyph-name="sterling" unicode="&#xa3;" horiz-adv-x="983" 
d="M670 176q83 0 213 86l90 -192q-152 -92 -305 -93q-37 0 -170 34t-194 34q-60 0 -104 -13.5t-106 -37.5l-84 170q106 68 173 163t67 199q0 43 -23 101h-209v168h138q-92 178 -92 272q-1 178 112.5 280.5t325.5 102.5t327 -100.5t119 -323.5h-270q0 231 -160 231
q-96 0 -134 -50t-38 -116t53 -180l58 -116h342v-168h-289q10 -31 10 -101q0 -144 -184 -299l8 -4q38 15 80 15t124.5 -31t121.5 -31z" />
    <glyph glyph-name="currency" unicode="&#xa4;" horiz-adv-x="983" 
d="M240 711q0 -123 67.5 -194t184 -71t184 71t67.5 194t-67.5 193.5t-184 70.5t-184 -70.5t-67.5 -193.5zM23 711q0 145 79 262l-102 102l125 127l104 -102q117 80 260 80t265 -80l104 102l125 -127l-102 -102q80 -117 80 -262t-80 -262l102 -103l-125 -127l-104 105
q-116 -82 -262 -82t-263 82l-104 -105l-125 127l102 103q-79 117 -79 262z" />
    <glyph glyph-name="yen" unicode="&#xa5;" horiz-adv-x="983" 
d="M365 326h-291v168h291v88l-23 47h-268v168h188l-291 624h299l219 -551h5l229 551h295l-297 -624h188v-168h-268l-23 -47v-88h291v-168h-291v-326h-253v326z" />
    <glyph glyph-name="brokenbar" unicode="&#xa6;" horiz-adv-x="454" 
d="M100 1491h254v-555h-254v555zM100 526h254v-549h-254v549z" />
    <glyph glyph-name="section" unicode="&#xa7;" horiz-adv-x="985" 
d="M717 539q0 63 -31 100t-108 78l-197 104q-113 -67 -113 -153q0 -29 17.5 -61t52.5 -50l203 -111q45 -24 80 -51q96 81 96 144zM496 1298q-70 0 -104 -33.5t-34 -75.5q0 -84 131 -149l244 -114q94 -45 159.5 -123t65.5 -208t-61 -201.5t-98 -92.5q110 -88 110 -261
t-109.5 -259t-313.5 -86t-306 96t-102 254v31h270v-31q0 -72 41 -115t108 -43t98.5 43t31.5 94q0 103 -131 166l-252 121q-217 102 -217 258t49 232t135 119q-123 92 -123 233q0 171 114.5 254.5t305.5 83.5q298 0 343.5 -130t45.5 -202h-270q-1 139 -131 139z" />
    <glyph glyph-name="dieresis" unicode="&#xa8;" horiz-adv-x="454" 
d="M289 1491h229v-242h-229v242zM-57 1491h223v-242h-223v242z" />
    <glyph glyph-name="copyright" unicode="&#xa9;" horiz-adv-x="1638" 
d="M59 731q0 158 59.5 296t163 241.5t242 163t296 59.5t295.5 -59.5t241.5 -163t163 -241.5t59.5 -296t-59.5 -296t-163 -240.5t-241.5 -160t-295.5 -57.5t-296 57.5t-242 160t-163 240.5t-59.5 296zM289 731.5q0 -110.5 40 -210t110.5 -173.5t168 -117t212 -43t211.5 43
t168 117t111 173.5t40 210t-40 209.5t-111 173t-168 117t-211.5 43t-212 -43t-168 -117t-110.5 -173t-40 -209.5zM820 1008q-92 0 -147 -77t-55 -192t58 -193.5t144 -78.5t135 39t59 104h205q-23 -149 -128 -234t-257 -85q-82 0 -160 34.5t-163 127t-85 285.5t113.5 319.5
t304.5 126.5q140 0 243.5 -81.5t122.5 -232.5h-196q-36 138 -194 138z" />
    <glyph glyph-name="ordfeminine" unicode="&#xaa;" horiz-adv-x="643" 
d="M310 883q85 0 85 96v121q-26 -20 -75 -30q-95 -21 -95 -104t85 -83zM600 895q0 -81 23 -129h-205q-10 16 -14.5 35.5t-8.5 36.5q-35 -53 -78 -69.5t-104 -16.5q-104 0 -148.5 56t-44.5 143t42 132t141 66l119 25q73 18 73 69q0 76 -76 76q-41 0 -62 -22.5t-21 -57.5v-18
h-193v26q0 113 78.5 158t184.5 45q179 0 236.5 -51t57.5 -152v-352z" />
    <glyph glyph-name="guillemotleft" unicode="&#xab;" horiz-adv-x="872" 
d="M106 758l306 246v-271l-162 -141l162 -141v-271l-306 246v332zM461 758l305 246v-271l-162 -141l162 -141v-271l-305 246v332z" />
    <glyph glyph-name="logicalnot" unicode="&#xac;" horiz-adv-x="1228" 
d="M879 614h-783v254h1037v-667h-254v413z" />
    <glyph glyph-name="registered" unicode="&#xae;" horiz-adv-x="1638" 
d="M289 731.5q0 -110.5 40 -210t110.5 -173.5t168 -117t212 -43t211.5 43t168 117t111 173.5t40 210t-40 209.5t-111 173t-168 117t-211.5 43t-212 -43t-168 -117t-110.5 -173t-40 -209.5zM59 731q0 158 59.5 296t163 241.5t242 163t296 59.5t295.5 -59.5t241.5 -163
t163 -241.5t59.5 -296t-59.5 -296t-163 -240.5t-241.5 -160t-295.5 -57.5t-296 57.5t-242 160t-163 240.5t-59.5 296zM702 795h138q59 0 98 18t39 94t-65.5 83t-90.5 7h-119v-202zM842 1141q315 0 315 -254q0 -104 -58.5 -160.5t-144.5 -67.5l203 -337h-196l-193 329h-66
v-329h-180v819h320z" />
    <glyph glyph-name="macron" unicode="&#xaf;" horiz-adv-x="454" 
d="M528 1462v-155h-596v155h596z" />
    <glyph glyph-name="degree" unicode="&#xb0;" horiz-adv-x="819" 
d="M262 1146.5q0 -61.5 43 -104.5t104.5 -43t104.5 43t43 104.5t-43 104.5t-104.5 43t-104.5 -43t-43 -104.5zM106 1146.5q0 63.5 24 119t65 96.5t96 64.5t118.5 23.5t119 -23.5t96.5 -64.5t64.5 -96.5t23.5 -119t-23.5 -118.5t-64.5 -96t-96.5 -64.5t-119 -23.5
t-118.5 23.5t-96 64.5t-65 96t-24 118.5z" />
    <glyph glyph-name="plusminus" unicode="&#xb1;" horiz-adv-x="1228" 
d="M96 254h1037v-254h-1037v254zM487 1036h254v-221h392v-254h-392v-221h-254v221h-391v254h391v221z" />
    <glyph glyph-name="twosuperior" unicode="&#xb2;" horiz-adv-x="638" 
d="M0 1196q0 254 323 254q171 0 243.5 -60.5t72.5 -152.5t-27.5 -152.5t-107.5 -121.5l-117 -91q-94 -73 -108 -131h360v-168h-639q0 117 45 210.5t162 174.5l102 74q59 43 80 81t21 82t-24 71.5t-64 27.5q-105 0 -105 -149h-217v51z" />
    <glyph glyph-name="threesuperior" unicode="&#xb3;" horiz-adv-x="638" 
d="M313 715q97 0 97 108q0 129 -123 129h-58v144h58q59 0 84.5 33.5t25.5 73.5t-23.5 65.5t-70.5 25.5q-84 0 -84 -123h-205q0 279 297 279q154 0 228.5 -53.5t74.5 -169.5q0 -80 -37.5 -130t-105.5 -65v-4q92 -16 130 -70t38 -116q0 -130 -73.5 -206.5t-272.5 -76.5
q-293 0 -293 272v21h217q5 -137 96 -137z" />
    <glyph glyph-name="acute" unicode="&#xb4;" horiz-adv-x="454" 
d="M205 1526h282l-200 -295h-193z" />
    <glyph glyph-name="mu" unicode="&#xb5;" horiz-adv-x="1024" 
d="M447 -23q-42 0 -70 17v-348h-283v1456h283v-760q0 -86 28.5 -120t92.5 -34q150 0 149 183v731h283v-1102h-271v129h-4q-45 -82 -105.5 -117t-102.5 -35z" />
    <glyph glyph-name="paragraph" unicode="&#xb6;" horiz-adv-x="983" 
d="M373 686q-184 0 -277.5 97.5t-93.5 283.5q0 321 157.5 358t248.5 37h548v-1738h-217v1546h-149v-1546h-217v962z" />
    <glyph glyph-name="periodcentered" unicode="&#xb7;" horiz-adv-x="491" 
d="M47 578q0 86 56.5 142t142.5 56t142 -56t56 -142t-56 -142.5t-142 -56.5t-142.5 56.5t-56.5 142.5z" />
    <glyph glyph-name="cedilla" unicode="&#xb8;" horiz-adv-x="454" 
d="M463 -272q0 -80 -66.5 -130.5t-196.5 -50.5t-200 39l39 95q59 -31 121 -31t92.5 20t30.5 50t-25 49.5t-64 19.5t-71 -12l-45 41l112 182h111l-78 -119q45 10 72 10q63 0 115.5 -41.5t52.5 -121.5z" />
    <glyph glyph-name="onesuperior" unicode="&#xb9;" horiz-adv-x="638" 
d="M66 1311q194 0 223 139h176v-877h-229v594h-187v144h17z" />
    <glyph glyph-name="ordmasculine" unicode="&#xba;" horiz-adv-x="643" 
d="M229 1100q0 -94 15.5 -155.5t71.5 -61.5t77 50t21 167t-20.5 168t-76.5 51t-72 -62.5t-16 -156.5zM618 1101q0 -181 -67 -265t-232 -86t-229.5 82t-64.5 262t64.5 267t232.5 89q244 6 270 -128t26 -221z" />
    <glyph glyph-name="guillemotright" unicode="&#xbb;" horiz-adv-x="872" 
d="M461 451l162 141l-162 141v271l305 -246v-332l-305 -246v271zM106 451l162 141l-162 141v271l306 -246v-332l-306 -246v271z" />
    <glyph glyph-name="onequarter" unicode="&#xbc;" horiz-adv-x="1476" 
d="M16 1311q195 0 224 139h176v-877h-230v594h-186v144h16zM1028 1485h182l-831 -1542h-182zM1386 877v-551h91v-168h-91v-158h-217v158h-348v186l312 533h253zM1169 623h-4l-176 -297h180v297z" />
    <glyph glyph-name="onehalf" unicode="&#xbd;" horiz-adv-x="1476" 
d="M838 623q0 254 322 254q171 0 244 -60.5t73 -152.5t-28 -152.5t-108 -122.5l-116 -90q-95 -74 -109 -131h361v-168h-639q0 117 45 210t161 175l103 74q59 43 79.5 81t20.5 82t-23.5 71.5t-64.5 27.5q-104 0 -104 -150h-217v52zM16 1311q195 0 224 139h176v-877h-230v594
h-186v144h16zM979 1485h182l-831 -1542h-183z" />
    <glyph glyph-name="threequarters" unicode="&#xbe;" horiz-adv-x="1476" 
d="M313 715q97 0 97 108q0 129 -123 129h-58v144h58q59 0 84.5 33.5t25.5 73.5t-23.5 65.5t-70.5 25.5q-84 0 -84 -123h-205q0 279 297 279q154 0 228.5 -53.5t74.5 -169.5q0 -80 -37.5 -130t-105.5 -65v-4q92 -16 130 -70t38 -116q0 -130 -73.5 -206.5t-272.5 -76.5
q-293 0 -293 272v21h217q5 -137 96 -137zM1108 1485h182l-831 -1542h-183zM1169 326v297h-4l-176 -297h180zM1386 877v-551h91v-168h-91v-158h-217v158h-348v186l312 533h253z" />
    <glyph glyph-name="questiondown" unicode="&#xbf;" horiz-adv-x="985" 
d="M371 831v271h282v-271h-282zM911 92v-47q0 -183 -104 -299.5t-311 -116.5t-314.5 106.5t-107.5 282.5q0 86 27.5 160t101.5 160l82 92q53 59 76.5 108.5t23.5 127.5v30h254v-80q0 -102 -28.5 -172.5t-98.5 -148.5l-78 -88q-78 -85 -78 -211q0 -78 35 -126t109 -48
t107.5 62.5t33.5 156.5v51h270z" />
    <glyph glyph-name="Agrave" unicode="&#xc0;" 
d="M510 1548l-201 295h283l110 -295h-192zM426 551h287l-142 657h-4zM387 1462h365l387 -1462h-308l-67 309h-389l-68 -309h-307z" />
    <glyph glyph-name="Aacute" unicode="&#xc1;" 
d="M547 1843h282l-200 -295h-193zM426 551h287l-142 657h-4zM387 1462h365l387 -1462h-308l-67 309h-389l-68 -309h-307z" />
    <glyph glyph-name="Acircumflex" unicode="&#xc2;" 
d="M422 1843h295l160 -295h-218l-94 174l-98 -174h-205zM426 551h287l-142 657h-4zM387 1462h365l387 -1462h-308l-67 309h-389l-68 -309h-307z" />
    <glyph glyph-name="Atilde" unicode="&#xc3;" 
d="M686 1751q30 0 43.5 26.5t13.5 47.5h148q-10 -111 -61.5 -182.5t-129.5 -71.5q-43 0 -102 23.5t-88 34.5t-53 11q-49 0 -66 -73h-143q33 254 190 254q57 0 88 -15l99 -43q31 -12 61 -12zM426 551h287l-142 657h-4zM387 1462h365l387 -1462h-308l-67 309h-389l-68 -309
h-307z" />
    <glyph glyph-name="Adieresis" unicode="&#xc4;" 
d="M631 1808h229v-241h-229v241zM279 1808h229v-241h-229v241zM426 551h287l-142 657h-4zM387 1462h365l387 -1462h-308l-67 309h-389l-68 -309h-307z" />
    <glyph glyph-name="Aring" unicode="&#xc5;" 
d="M451 1735q0 -49 34.5 -84t83.5 -35t84 35t35 84t-35 83.5t-84 34.5t-83.5 -34.5t-34.5 -83.5zM336 1735q0 49 18.5 91t50 73.5t73.5 50t91 18.5t91 -18.5t74 -50t50.5 -73.5t18.5 -91t-18.5 -91t-50.5 -74t-74 -50.5t-91 -18.5t-91 18.5t-73.5 50.5t-50 74t-18.5 91z
M426 551h287l-142 657h-4zM387 1462h365l387 -1462h-308l-67 309h-389l-68 -309h-307z" />
    <glyph glyph-name="AE" unicode="&#xc6;" horiz-adv-x="1554" 
d="M725 551v682h-18l-228 -682h246zM1489 1462v-241h-481v-344h450v-242h-450v-393h501v-242h-784v309h-326l-102 -309h-301l545 1462h948z" />
    <glyph glyph-name="Ccedilla" unicode="&#xc7;" horiz-adv-x="1099" 
d="M556 -211q-38 0 -73 -12l-45 41l97 159q-286 11 -360.5 165.5t-88.5 290.5t-14 300t15 304.5t97 297t374 156.5t378 -150t86 -372h-295q0 160 -38 232.5t-142 72.5t-142 -122.5t-38 -364.5t11 -344.5t42.5 -178.5t128.5 -76q96 0 143 76.5t47 294.5h295
q0 -256 -82 -406.5t-307 -172.5l-61 -99q46 10 72 10q62 0 114.5 -41.5t52.5 -121.5t-66.5 -130.5t-196.5 -50.5t-200 39l39 95q59 -31 122 -31t92.5 20t29.5 50t-24.5 49.5t-62.5 19.5z" />
    <glyph glyph-name="Egrave" unicode="&#xc8;" horiz-adv-x="985" 
d="M459 1548l-201 295h283l110 -295h-192zM920 1462v-241h-523v-344h492v-242h-492v-393h543v-242h-838v1462h818z" />
    <glyph glyph-name="Eacute" unicode="&#xc9;" horiz-adv-x="985" 
d="M496 1843h282l-200 -295h-193zM920 1462v-241h-523v-344h492v-242h-492v-393h543v-242h-838v1462h818z" />
    <glyph glyph-name="Ecircumflex" unicode="&#xca;" horiz-adv-x="985" 
d="M371 1843h295l159 -295h-217l-94 174l-98 -174h-205zM920 1462v-241h-523v-344h492v-242h-492v-393h543v-242h-838v1462h818z" />
    <glyph glyph-name="Edieresis" unicode="&#xcb;" horiz-adv-x="985" 
d="M580 1808h229v-241h-229v241zM227 1808h230v-241h-230v241zM920 1462v-241h-523v-344h492v-242h-492v-393h543v-242h-838v1462h818z" />
    <glyph glyph-name="Igrave" unicode="&#xcc;" horiz-adv-x="528" 
d="M205 1548l-201 295h283l110 -295h-192zM117 0v1462h295v-1462h-295z" />
    <glyph glyph-name="Iacute" unicode="&#xcd;" horiz-adv-x="528" 
d="M242 1843h282l-200 -295h-193zM117 0v1462h295v-1462h-295z" />
    <glyph glyph-name="Icircumflex" unicode="&#xce;" horiz-adv-x="528" 
d="M117 1843h295l159 -295h-217l-94 174l-98 -174h-199zM117 0v1462h295v-1462h-295z" />
    <glyph glyph-name="Idieresis" unicode="&#xcf;" horiz-adv-x="528" 
d="M326 1808h229v-241h-229v241zM-20 1808h223v-241h-223v241zM117 0v1462h295v-1462h-295z" />
    <glyph glyph-name="Eth" unicode="&#xd0;" horiz-adv-x="1175" 
d="M412 862h190v-217h-190v-428h131q78 0 125 26.5t83.5 108.5t36.5 374t-46.5 405.5t-204.5 113.5h-125v-383zM117 645h-117v217h117v600h483q286 0 384.5 -175t98.5 -556t-108.5 -556t-392.5 -175h-465v645z" />
    <glyph glyph-name="Ntilde" unicode="&#xd1;" horiz-adv-x="1175" 
d="M704 1751q30 0 44 26.5t14 47.5h147q-10 -111 -61 -182.5t-129 -71.5q-42 0 -102 23.5t-88.5 34.5t-53.5 11q-49 0 -65 -73h-144q33 254 191 254q57 0 88 -15l98 -43q31 -12 61 -12zM803 461v1001h270v-1462h-336l-360 1024h-4v-1024h-271v1462h340l357 -1001h4z" />
    <glyph glyph-name="Ograve" unicode="&#xd2;" 
d="M510 1548l-201 295h283l110 -295h-192zM367 731.5q0 -147.5 7 -251t28.5 -168t61.5 -94.5t105.5 -30t105.5 30t61.5 94.5t28.5 168t7 251t-7 249.5t-28.5 167.5t-61.5 95.5t-105.5 30t-105.5 -30t-61.5 -95.5t-28.5 -167.5t-7 -249.5zM72 730q0 167 15 307.5t67.5 240.5
t150.5 156.5t264 56.5t264.5 -56.5t150.5 -156.5t67.5 -240.5t15.5 -307.5t-15.5 -306t-67.5 -239.5t-150.5 -154t-264.5 -53.5t-264 53.5t-150.5 154t-67.5 239.5t-15 306z" />
    <glyph glyph-name="Oacute" unicode="&#xd3;" 
d="M547 1843h282l-200 -295h-193zM367 731.5q0 -147.5 7 -251t28.5 -168t61.5 -94.5t105.5 -30t105.5 30t61.5 94.5t28.5 168t7 251t-7 249.5t-28.5 167.5t-61.5 95.5t-105.5 30t-105.5 -30t-61.5 -95.5t-28.5 -167.5t-7 -249.5zM72 730q0 167 15 307.5t67.5 240.5
t150.5 156.5t264 56.5t264.5 -56.5t150.5 -156.5t67.5 -240.5t15.5 -307.5t-15.5 -306t-67.5 -239.5t-150.5 -154t-264.5 -53.5t-264 53.5t-150.5 154t-67.5 239.5t-15 306z" />
    <glyph glyph-name="Ocircumflex" unicode="&#xd4;" 
d="M422 1843h295l160 -295h-218l-94 174l-98 -174h-205zM367 731.5q0 -147.5 7 -251t28.5 -168t61.5 -94.5t105.5 -30t105.5 30t61.5 94.5t28.5 168t7 251t-7 249.5t-28.5 167.5t-61.5 95.5t-105.5 30t-105.5 -30t-61.5 -95.5t-28.5 -167.5t-7 -249.5zM72 730
q0 167 15 307.5t67.5 240.5t150.5 156.5t264 56.5t264.5 -56.5t150.5 -156.5t67.5 -240.5t15.5 -307.5t-15.5 -306t-67.5 -239.5t-150.5 -154t-264.5 -53.5t-264 53.5t-150.5 154t-67.5 239.5t-15 306z" />
    <glyph glyph-name="Otilde" unicode="&#xd5;" 
d="M686 1751q30 0 43.5 26.5t13.5 47.5h148q-10 -111 -61.5 -182.5t-129.5 -71.5q-43 0 -102 23.5t-88 34.5t-53 11q-49 0 -66 -73h-143q33 254 190 254q57 0 88 -15l99 -43q31 -12 61 -12zM367 731.5q0 -147.5 7 -251t28.5 -168t61.5 -94.5t105.5 -30t105.5 30t61.5 94.5
t28.5 168t7 251t-7 249.5t-28.5 167.5t-61.5 95.5t-105.5 30t-105.5 -30t-61.5 -95.5t-28.5 -167.5t-7 -249.5zM72 730q0 167 15 307.5t67.5 240.5t150.5 156.5t264 56.5t264.5 -56.5t150.5 -156.5t67.5 -240.5t15.5 -307.5t-15.5 -306t-67.5 -239.5t-150.5 -154
t-264.5 -53.5t-264 53.5t-150.5 154t-67.5 239.5t-15 306z" />
    <glyph glyph-name="Odieresis" unicode="&#xd6;" 
d="M631 1808h229v-241h-229v241zM279 1808h229v-241h-229v241zM367 731.5q0 -147.5 7 -251t28.5 -168t61.5 -94.5t105.5 -30t105.5 30t61.5 94.5t28.5 168t7 251t-7 249.5t-28.5 167.5t-61.5 95.5t-105.5 30t-105.5 -30t-61.5 -95.5t-28.5 -167.5t-7 -249.5zM72 730
q0 167 15 307.5t67.5 240.5t150.5 156.5t264 56.5t264.5 -56.5t150.5 -156.5t67.5 -240.5t15.5 -307.5t-15.5 -306t-67.5 -239.5t-150.5 -154t-264.5 -53.5t-264 53.5t-150.5 154t-67.5 239.5t-15 306z" />
    <glyph glyph-name="multiply" unicode="&#xd7;" horiz-adv-x="1228" 
d="M440 518l-319 318l176 176l317 -320l318 320l176 -176l-320 -318l320 -317l-176 -176l-318 319l-317 -319l-176 176z" />
    <glyph glyph-name="Oslash" unicode="&#xd8;" 
d="M72 760q0 361 97 546t400 185q150 0 248 -49l53 125l99 -43l-62 -144q134 -124 147 -332t13 -346t-15.5 -277.5t-67.5 -240t-150.5 -154t-256.5 -53.5t-255 43l-54 -118l-98 43l61 137q-133 123 -146 332t-13 346zM569 188q126 0 164.5 115.5t38.5 378.5t-12 352h-4
l-330 -770q39 -76 143 -76zM367 696q0 -183 12 -268h4l330 772q-45 74 -144 74q-66 0 -105.5 -30t-61 -95.5t-28.5 -167.5t-7 -285z" />
    <glyph glyph-name="Ugrave" unicode="&#xd9;" horiz-adv-x="1101" 
d="M492 1548l-201 295h282l111 -295h-192zM379 1462v-1020q0 -123 37.5 -188.5t134.5 -65.5q142 0 157 99.5t15 154.5v1020h295v-1020q0 -257 -127 -361t-341 -104t-340 97t-126 368v1020h295z" />
    <glyph glyph-name="Uacute" unicode="&#xda;" horiz-adv-x="1101" 
d="M528 1843h283l-201 -295h-192zM379 1462v-1020q0 -123 37.5 -188.5t134.5 -65.5q142 0 157 99.5t15 154.5v1020h295v-1020q0 -257 -127 -361t-341 -104t-340 97t-126 368v1020h295z" />
    <glyph glyph-name="Ucircumflex" unicode="&#xdb;" horiz-adv-x="1101" 
d="M403 1843h295l160 -295h-217l-94 174l-98 -174h-205zM379 1462v-1020q0 -123 37.5 -188.5t134.5 -65.5q142 0 157 99.5t15 154.5v1020h295v-1020q0 -257 -127 -361t-341 -104t-340 97t-126 368v1020h295z" />
    <glyph glyph-name="Udieresis" unicode="&#xdc;" horiz-adv-x="1101" 
d="M612 1808h230v-241h-230v241zM260 1808h229v-241h-229v241zM379 1462v-1020q0 -123 37.5 -188.5t134.5 -65.5q142 0 157 99.5t15 154.5v1020h295v-1020q0 -257 -127 -361t-341 -104t-340 97t-126 368v1020h295z" />
    <glyph glyph-name="Yacute" unicode="&#xdd;" horiz-adv-x="1064" 
d="M510 1843h283l-201 -295h-193zM680 0h-295v575l-379 887h332l192 -565h5l204 565h320l-379 -887v-575z" />
    <glyph glyph-name="Thorn" unicode="&#xde;" horiz-adv-x="1062" 
d="M397 539h131q88 0 142.5 53t54.5 165t-47 169t-158 57h-123v-444zM102 1462h295v-262h221q209 0 305.5 -126.5t96.5 -311.5q0 -329 -180.5 -384.5t-284.5 -55.5h-158v-322h-295v1462z" />
    <glyph glyph-name="germandbls" unicode="&#xdf;" horiz-adv-x="1024" 
d="M504 920q135 0 135 189t-135 189q-84 0 -110.5 -63.5t-26.5 -161.5v-1073h-283v1079q0 217 105.5 314.5t315.5 97.5q417 0 417 -350q0 -118 -29 -169.5t-64.5 -80.5t-89.5 -51v-4q123 -20 175.5 -124t52.5 -270q0 -308 -125 -378t-218 -70t-159 6v188q18 -8 58 -8
q90 0 125.5 72t35.5 206t-35 201.5t-129 67.5h-51v193h35z" />
    <glyph glyph-name="agrave" unicode="&#xe0;" horiz-adv-x="985" 
d="M434 1231l-201 295h283l111 -295h-193zM434 164q112 0 143 62.5t31 107.5v217q-49 -39 -128 -56q-152 -33 -152 -182t106 -149zM338 -23q-156 0 -218.5 92.5t-62.5 194.5t16.5 157.5t63.5 111t199 98.5l160 43q63 16 87.5 45t24.5 88q0 131 -131 131q-66 0 -98.5 -39
t-32.5 -104v-31h-254v27q0 177 105 258t257 81t230 -24.5t136.5 -85.5t58.5 -227v-580q0 -130 34 -213h-270q-19 36 -35 115h-4q-49 -86 -113.5 -112t-152.5 -26z" />
    <glyph glyph-name="aacute" unicode="&#xe1;" horiz-adv-x="985" 
d="M471 1526h283l-201 -295h-193zM434 164q112 0 143 62.5t31 107.5v217q-49 -39 -128 -56q-152 -33 -152 -182t106 -149zM338 -23q-156 0 -218.5 92.5t-62.5 194.5t16.5 157.5t63.5 111t199 98.5l160 43q63 16 87.5 45t24.5 88q0 131 -131 131q-66 0 -98.5 -39t-32.5 -104
v-31h-254v27q0 177 105 258t257 81t230 -24.5t136.5 -85.5t58.5 -227v-580q0 -130 34 -213h-270q-19 36 -35 115h-4q-49 -86 -113.5 -112t-152.5 -26z" />
    <glyph glyph-name="acircumflex" unicode="&#xe2;" horiz-adv-x="985" 
d="M346 1526h295l160 -295h-217l-95 174l-98 -174h-205zM434 164q112 0 143 62.5t31 107.5v217q-49 -39 -128 -56q-152 -33 -152 -182t106 -149zM338 -23q-156 0 -218.5 92.5t-62.5 194.5t16.5 157.5t63.5 111t199 98.5l160 43q63 16 87.5 45t24.5 88q0 131 -131 131
q-66 0 -98.5 -39t-32.5 -104v-31h-254v27q0 177 105 258t257 81t230 -24.5t136.5 -85.5t58.5 -227v-580q0 -130 34 -213h-270q-19 36 -35 115h-4q-49 -86 -113.5 -112t-152.5 -26z" />
    <glyph glyph-name="atilde" unicode="&#xe3;" horiz-adv-x="985" 
d="M352 1503q67 0 99 -14l98 -43q31 -12 61 -12t44 26.5t14 46.5h147q-10 -111 -61.5 -182.5t-128.5 -71.5q-46 0 -132.5 35t-111.5 35q-49 0 -66 -74h-143q16 123 64.5 188.5t115.5 65.5zM434 164q112 0 143 62.5t31 107.5v217q-49 -39 -128 -56q-152 -33 -152 -182
t106 -149zM338 -23q-156 0 -218.5 92.5t-62.5 194.5t16.5 157.5t63.5 111t199 98.5l160 43q63 16 87.5 45t24.5 88q0 131 -131 131q-66 0 -98.5 -39t-32.5 -104v-31h-254v27q0 177 105 258t257 81t230 -24.5t136.5 -85.5t58.5 -227v-580q0 -130 34 -213h-270q-19 36 -35 115
h-4q-49 -86 -113.5 -112t-152.5 -26z" />
    <glyph glyph-name="adieresis" unicode="&#xe4;" horiz-adv-x="985" 
d="M555 1491h229v-242h-229v242zM203 1491h229v-242h-229v242zM434 164q112 0 143 62.5t31 107.5v217q-49 -39 -128 -56q-152 -33 -152 -182t106 -149zM338 -23q-156 0 -218.5 92.5t-62.5 194.5t16.5 157.5t63.5 111t199 98.5l160 43q63 16 87.5 45t24.5 88q0 131 -131 131
q-66 0 -98.5 -39t-32.5 -104v-31h-254v27q0 177 105 258t257 81t230 -24.5t136.5 -85.5t58.5 -227v-580q0 -130 34 -213h-270q-19 36 -35 115h-4q-49 -86 -113.5 -112t-152.5 -26z" />
    <glyph glyph-name="aring" unicode="&#xe5;" horiz-adv-x="985" 
d="M375 1429.5q0 -49.5 34.5 -84t84 -34.5t84 34.5t34.5 84t-34.5 84t-84 34.5t-84 -34.5t-34.5 -84zM260 1429.5q0 49.5 18.5 91.5t50 73.5t73.5 50t91.5 18.5t91.5 -18.5t73.5 -50t50 -73.5t18.5 -91.5t-18.5 -91.5t-50 -73.5t-73.5 -50t-91.5 -18.5t-91.5 18.5t-73.5 50
t-50 73.5t-18.5 91.5zM434 164q112 0 143 62.5t31 107.5v217q-49 -39 -128 -56q-152 -33 -152 -182t106 -149zM338 -23q-156 0 -218.5 92.5t-62.5 194.5t16.5 157.5t63.5 111t199 98.5l160 43q63 16 87.5 45t24.5 88q0 131 -131 131q-66 0 -98.5 -39t-32.5 -104v-31h-254v27
q0 177 105 258t257 81t230 -24.5t136.5 -85.5t58.5 -227v-580q0 -130 34 -213h-270q-19 36 -35 115h-4q-49 -86 -113.5 -112t-152.5 -26z" />
    <glyph glyph-name="ae" unicode="&#xe6;" horiz-adv-x="1478" 
d="M1038 1130q212 0 298.5 -138t86.5 -421v-63h-555v-88q0 -174 49.5 -215t88.5 -41q70 0 102.5 51t44.5 156h254q-8 -193 -103.5 -293.5t-293.5 -100.5q-262 0 -332 185q-63 -117 -140.5 -151t-183.5 -34t-157.5 26t-96.5 92.5t-45 168.5t16.5 157.5t63.5 111t199 98.5
l160 43q63 16 87.5 45t24.5 88q0 131 -131 131q-66 0 -98.5 -39t-32.5 -104v-31h-254v27q0 177 105 258t282 81q111 0 175.5 -27.5t109.5 -103.5q64 131 276 131zM1012 938q-109 0 -126.5 -90t-17.5 -129v-43h285q-4 129 -29.5 195.5t-111.5 66.5zM432 164q112 0 143 62.5
t31 107.5v217q-49 -39 -128 -56q-152 -33 -152 -182t106 -149z" />
    <glyph glyph-name="ccedilla" unicode="&#xe7;" horiz-adv-x="948" 
d="M468 -211q-38 0 -73 -12l-45 41l96 159q-98 4 -245.5 60t-147.5 518t174 518.5t273 56.5q197 0 296 -114.5t99 -310.5h-270q0 221 -127 221q-100 0 -131 -87t-31 -295t30 -294t112 -86t114.5 61.5t32.5 196.5h270q0 -199 -78 -310.5t-258 -129.5l-63 -101
q114 25 176.5 -24t62.5 -129t-66.5 -130.5t-196.5 -50.5t-200 39l39 95q59 -31 122 -31t92.5 20t29.5 50t-24.5 49.5t-62.5 19.5z" />
    <glyph glyph-name="egrave" unicode="&#xe8;" horiz-adv-x="948" 
d="M416 1231l-201 295h283l110 -295h-192zM463.5 938q-60.5 0 -94 -64.5t-33.5 -154.5v-43h289q-4 136 -24.5 181.5t-48.5 63t-88.5 17.5zM336 508v-88q0 -175 50 -215.5t89 -40.5q72 0 104.5 51t45.5 156h254q-8 -193 -102.5 -293.5t-297.5 -100.5q-275 0 -341 135.5
t-75.5 239.5t-9.5 212q0 259 88.5 412.5t350.5 153.5q334 0 368.5 -216t34.5 -343v-63h-559z" />
    <glyph glyph-name="eacute" unicode="&#xe9;" horiz-adv-x="948" 
d="M453 1526h282l-200 -295h-193zM463.5 938q-60.5 0 -94 -64.5t-33.5 -154.5v-43h289q-4 136 -24.5 181.5t-48.5 63t-88.5 17.5zM336 508v-88q0 -175 50 -215.5t89 -40.5q72 0 104.5 51t45.5 156h254q-8 -193 -102.5 -293.5t-297.5 -100.5q-275 0 -341 135.5t-75.5 239.5
t-9.5 212q0 259 88.5 412.5t350.5 153.5q334 0 368.5 -216t34.5 -343v-63h-559z" />
    <glyph glyph-name="ecircumflex" unicode="&#xea;" horiz-adv-x="948" 
d="M328 1526h295l159 -295h-217l-94 174l-98 -174h-205zM463.5 938q-60.5 0 -94 -64.5t-33.5 -154.5v-43h289q-4 136 -24.5 181.5t-48.5 63t-88.5 17.5zM336 508v-88q0 -175 50 -215.5t89 -40.5q72 0 104.5 51t45.5 156h254q-8 -193 -102.5 -293.5t-297.5 -100.5
q-275 0 -341 135.5t-75.5 239.5t-9.5 212q0 259 88.5 412.5t350.5 153.5q334 0 368.5 -216t34.5 -343v-63h-559z" />
    <glyph glyph-name="edieresis" unicode="&#xeb;" horiz-adv-x="948" 
d="M537 1491h229v-242h-229v242zM184 1491h230v-242h-230v242zM463.5 938q-60.5 0 -94 -64.5t-33.5 -154.5v-43h289q-4 136 -24.5 181.5t-48.5 63t-88.5 17.5zM336 508v-88q0 -175 50 -215.5t89 -40.5q72 0 104.5 51t45.5 156h254q-8 -193 -102.5 -293.5t-297.5 -100.5
q-275 0 -341 135.5t-75.5 239.5t-9.5 212q0 259 88.5 412.5t350.5 153.5q334 0 368.5 -216t34.5 -343v-63h-559z" />
    <glyph glyph-name="igrave" unicode="&#xec;" horiz-adv-x="491" 
d="M186 1231l-194 295h276l111 -295h-193zM104 1102h283v-1102h-283v1102z" />
    <glyph glyph-name="iacute" unicode="&#xed;" horiz-adv-x="491" 
d="M223 1526h283l-201 -295h-192zM104 1102h283v-1102h-283v1102z" />
    <glyph glyph-name="icircumflex" unicode="&#xee;" horiz-adv-x="491" 
d="M98 1526h295l160 -295h-217l-94 174l-99 -174h-198zM104 1102h283v-1102h-283v1102z" />
    <glyph glyph-name="idieresis" unicode="&#xef;" horiz-adv-x="491" 
d="M307 1491h230v-242h-230v242zM-39 1491h223v-242h-223v242zM104 1102h283v-1102h-283v1102z" />
    <glyph glyph-name="eth" unicode="&#xf0;" horiz-adv-x="983" 
d="M926 474.5q0 -217.5 -98.5 -357.5t-340.5 -142t-336 135.5t-94 440.5q0 392 131 465.5t217 73.5t152 -54l4 4q-67 106 -188 246l-158 -92l-80 86l156 92q-71 71 -135 131l213 125q74 -66 137 -129l153 92l89 -86l-158 -92q257 -282 296.5 -501.5t39.5 -437zM487 164
q91 0 123.5 87t32.5 281t-32.5 279.5t-118.5 85.5q-135 0 -143.5 -141.5t-8.5 -277.5t28 -225t119 -89z" />
    <glyph glyph-name="ntilde" unicode="&#xf1;" horiz-adv-x="1024" 
d="M381 1503q57 0 88 -14l98 -43q31 -12 61 -12t44 26.5t14 46.5h148q-10 -111 -61.5 -182.5t-129.5 -71.5q-46 0 -132.5 35t-111.5 35q-49 0 -65 -74h-144q33 254 191 254zM649 1130q281 0 281 -313v-817h-283v760q0 86 -28.5 119.5t-92.5 33.5q-150 0 -149 -182v-731h-283
v1102h271v-129h4q86 157 280 157z" />
    <glyph glyph-name="ograve" unicode="&#xf2;" horiz-adv-x="983" 
d="M432 1231l-201 295h283l111 -295h-193zM487 164q91 0 123.5 90t32.5 297t-32.5 297t-118.5 90q-135 0 -143.5 -151.5t-8.5 -293.5t28 -235.5t119 -93.5zM926 554q0 -298 -98.5 -437.5t-340.5 -141.5t-336 135.5t-94 435.5t100.5 441t340.5 145t334 -139t94 -439z" />
    <glyph glyph-name="oacute" unicode="&#xf3;" horiz-adv-x="983" 
d="M469 1526h283l-201 -295h-193zM487 164q91 0 123.5 90t32.5 297t-32.5 297t-118.5 90q-135 0 -143.5 -151.5t-8.5 -293.5t28 -235.5t119 -93.5zM926 554q0 -298 -98.5 -437.5t-340.5 -141.5t-336 135.5t-94 435.5t100.5 441t340.5 145t334 -139t94 -439z" />
    <glyph glyph-name="ocircumflex" unicode="&#xf4;" horiz-adv-x="983" 
d="M344 1526h295l160 -295h-217l-95 174l-98 -174h-205zM487 164q91 0 123.5 90t32.5 297t-32.5 297t-118.5 90q-135 0 -143.5 -151.5t-8.5 -293.5t28 -235.5t119 -93.5zM926 554q0 -298 -98.5 -437.5t-340.5 -141.5t-336 135.5t-94 435.5t100.5 441t340.5 145t334 -139
t94 -439z" />
    <glyph glyph-name="otilde" unicode="&#xf5;" horiz-adv-x="983" 
d="M350 1503q67 0 99 -14l98 -43q31 -12 61 -12t44 26.5t14 46.5h147q-10 -111 -61.5 -182.5t-128.5 -71.5q-43 0 -131.5 35t-112.5 35q-49 0 -66 -74h-143q16 123 64.5 188.5t115.5 65.5zM487 164q91 0 123.5 90t32.5 297t-32.5 297t-118.5 90q-135 0 -143.5 -151.5
t-8.5 -293.5t28 -235.5t119 -93.5zM926 554q0 -298 -98.5 -437.5t-340.5 -141.5t-336 135.5t-94 435.5t100.5 441t340.5 145t334 -139t94 -439z" />
    <glyph glyph-name="odieresis" unicode="&#xf6;" horiz-adv-x="983" 
d="M553 1491h229v-242h-229v242zM201 1491h229v-242h-229v242zM487 164q91 0 123.5 90t32.5 297t-32.5 297t-118.5 90q-135 0 -143.5 -151.5t-8.5 -293.5t28 -235.5t119 -93.5zM926 554q0 -298 -98.5 -437.5t-340.5 -141.5t-336 135.5t-94 435.5t100.5 441t340.5 145
t334 -139t94 -439z" />
    <glyph glyph-name="divide" unicode="&#xf7;" horiz-adv-x="1228" 
d="M416 85q0 85 56 141.5t142 56.5t142.5 -56.5t56.5 -141.5t-56.5 -139.5t-142.5 -54.5t-142 54.5t-56 139.5zM416 952q0 86 56 142.5t142 56.5t142.5 -56.5t56.5 -142.5t-56.5 -142t-142.5 -56t-142 56t-56 142zM96 645h1037v-254h-1037v254z" />
    <glyph glyph-name="oslash" unicode="&#xf8;" horiz-adv-x="983" 
d="M57 521q0 325 100.5 467t334.5 142q137 2 223 -43l69 134l90 -47l-75 -144q127 -123 127 -449q0 -325 -98.5 -464.5t-335.5 -139.5q-143 -4 -224 37l-69 -127l-90 47l75 138q-127 124 -127 449zM643 496q0 152 -4 223h-4l-254 -488q35 -67 116 -67t113.5 90t32.5 242z
M340 461q0 -44 4 -80h4l252 487q-33 70 -108 70q-135 0 -143.5 -151.5t-8.5 -235.5v-90z" />
    <glyph glyph-name="ugrave" unicode="&#xf9;" horiz-adv-x="1024" 
d="M453 1231l-201 295h283l110 -295h-192zM94 285v817h283v-760q0 -86 28.5 -120t92.5 -34q150 0 149 183v731h283v-1102h-271v129h-4q-83 -152 -280 -152q-135 0 -208 71t-73 237z" />
    <glyph glyph-name="uacute" unicode="&#xfa;" horiz-adv-x="1024" 
d="M489 1526h283l-201 -295h-192zM94 285v817h283v-760q0 -86 28.5 -120t92.5 -34q150 0 149 183v731h283v-1102h-271v129h-4q-83 -152 -280 -152q-135 0 -208 71t-73 237z" />
    <glyph glyph-name="ucircumflex" unicode="&#xfb;" horiz-adv-x="1024" 
d="M365 1526h294l160 -295h-217l-94 174l-98 -174h-205zM94 285v817h283v-760q0 -86 28.5 -120t92.5 -34q150 0 149 183v731h283v-1102h-271v129h-4q-83 -152 -280 -152q-135 0 -208 71t-73 237z" />
    <glyph glyph-name="udieresis" unicode="&#xfc;" horiz-adv-x="1024" 
d="M573 1491h230v-242h-230v242zM221 1491h230v-242h-230v242zM94 285v817h283v-760q0 -86 28.5 -120t92.5 -34q150 0 149 183v731h283v-1102h-271v129h-4q-83 -152 -280 -152q-135 0 -208 71t-73 237z" />
    <glyph glyph-name="yacute" unicode="&#xfd;" horiz-adv-x="909" 
d="M432 1526h283l-201 -295h-192zM209 -354h-115v211q36 -7 94 -7t91.5 41t39.5 109l-309 1102h295l164 -762h4l143 762h283l-266 -1028q-37 -137 -71 -222t-80 -131.5t-110.5 -60.5t-162.5 -14z" />
    <glyph glyph-name="thorn" unicode="&#xfe;" horiz-adv-x="1024" 
d="M94 1462h283v-477h4q37 78 94 111.5t143 33.5q174 0 256 -136t82 -443t-81.5 -440.5t-256.5 -133.5q-80 0 -136 30t-101 95h-4v-456h-283v1816zM377 551q0 -180 27.5 -271.5t120.5 -91.5t121 91.5t28 271.5t-28 271t-121 91t-120.5 -91t-27.5 -271z" />
    <glyph glyph-name="ydieresis" unicode="&#xff;" horiz-adv-x="909" 
d="M516 1491h229v-242h-229v242zM164 1491h229v-242h-229v242zM209 -354h-115v211q36 -7 94 -7t91.5 41t39.5 109l-309 1102h295l164 -762h4l143 762h283l-266 -1028q-37 -137 -71 -222t-80 -131.5t-110.5 -60.5t-162.5 -14z" />
    <glyph glyph-name="Amacron" unicode="&#x100;" 
d="M866 1720v-155h-596v155h596zM713 551l-142 657h-4l-141 -657h287zM752 1462l387 -1462h-308l-67 309h-389l-68 -309h-307l387 1462h365z" />
    <glyph glyph-name="amacron" unicode="&#x101;" horiz-adv-x="985" 
d="M782 1397v-156h-596v156h596zM434 164q70 0 116 39q58 45 58 131v217q-49 -39 -128 -56q-152 -33 -152 -182t106 -149zM338 -23q-154 0 -216 90t-64 194q-2 176 63 253t215 117l160 43q63 16 88 45q24 29 24 88q-1 131 -131 131q-67 0 -99 -39t-32 -104v-31h-254v27
q0 177 114 265q96 74 248 74t230 -24t121 -70q72 -75 74 -243v-580q0 -130 34 -213h-270q-14 26 -35 115h-4q-50 -86 -114 -112t-152 -26z" />
    <glyph glyph-name="Abreve" unicode="&#x102;" 
d="M567 1720q59 0 103 37q43 37 49 96h131q0 -105 -58 -185q-76 -105 -226 -104t-222 104q-57 81 -57 185h129q6 -59 49 -96t102 -37zM713 551l-142 657h-4l-141 -657h287zM752 1462l387 -1462h-308l-67 309h-389l-68 -309h-307l387 1462h365z" />
    <glyph glyph-name="abreve" unicode="&#x103;" horiz-adv-x="985" 
d="M483 1393q59 0 103 37q43 37 49 96h131q0 -104 -58 -186q-75 -103 -224 -103t-224 103q-57 81 -57 186h129q6 -59 49 -96t102 -37zM434 164q70 0 116 39q58 45 58 131v217q-49 -39 -128 -56q-152 -33 -152 -182t106 -149zM338 -23q-154 0 -216 90t-64 194q-2 176 63 253
t215 117l160 43q63 16 88 45q24 29 24 88q-1 131 -131 131q-67 0 -99 -39t-32 -104v-31h-254v27q0 177 114 265q96 74 248 74t230 -24t121 -70q72 -75 74 -243v-580q0 -130 34 -213h-270q-14 26 -35 115h-4q-50 -86 -114 -112t-152 -26z" />
    <glyph glyph-name="Aogonek" unicode="&#x104;" 
d="M930 -240q0 -34 20 -58t69 -24t111 33l39 -117q-88 -47 -207.5 -47t-165.5 50q-46 51 -46 135t63 156t188 112h-170l-67 309h-389l-68 -309h-307l387 1462h365l387 -1462q-209 -130 -209 -240zM713 551l-142 657h-4l-141 -657h287z" />
    <glyph glyph-name="aogonek" unicode="&#x105;" horiz-adv-x="985" 
d="M705 -226q0 -96 69 -96t131 33l39 -117q-88 -47 -206 -47t-165 48.5t-48 134.5t63 158t188 112h-133q-14 26 -35 115h-4q-50 -86 -114 -112t-152 -26q-154 0 -216 90t-64 194q-2 176 63 253t215 117l160 43q63 16 88 45q24 29 24 88q-1 131 -131 131q-67 0 -99 -39
t-32 -104v-31h-254v27q0 177 114 265q96 74 248 74t230 -24t121 -70q72 -75 74 -243v-580q0 -130 34 -213q-208 -130 -208 -226zM328 313q0 -149 112 -149q64 0 116 42t52 128v217q-49 -39 -128 -56q-152 -33 -152 -182z" />
    <glyph glyph-name="Cacute" unicode="&#x106;" horiz-adv-x="1099" 
d="M727 969q0 161 -38 233t-142 72t-142 -123t-38 -365t11 -344q21 -193 94 -234q75 -39 156 -6q111 42 111 357h295q0 -274 -87 -412q-105 -168 -378 -170q-166 -1 -264 53q-185 101 -218 394q-15 139 -15 306t15 307q31 289 218 398q98 56 260 56t253 -51
q166 -93 193 -300q11 -91 11 -171h-295zM848 1843l-201 -295h-192l110 295h283z" />
    <glyph glyph-name="cacute" unicode="&#x107;" horiz-adv-x="948" 
d="M625 705q0 154 -62 201q-25 20 -71 20q-94 0 -125 -88t-31 -296t29 -288q31 -92 122 -90q72 0 105 61t33 197h270q0 -217 -97 -331t-322 -114t-317 118q-106 137 -106 456q0 469 266 553q82 27 181 26q197 0 296 -114t99 -311h-270zM752 1526l-201 -295h-193l111 295h283
z" />
    <glyph glyph-name="Ccircumflex" unicode="&#x108;" horiz-adv-x="1099" 
d="M403 1888h295l158 -295h-215l-94 174l-98 -174h-201zM727 969q0 161 -38 233t-142 72t-142 -123t-38 -365t11 -344q21 -193 94 -234q75 -39 156 -6q111 42 111 357h295q0 -274 -87 -412q-105 -168 -378 -170q-166 -1 -264 53q-185 101 -218 394q-15 139 -15 306t15 307
q31 289 218 398q98 56 260 56t253 -51q166 -93 193 -300q11 -91 11 -171h-295z" />
    <glyph glyph-name="ccircumflex" unicode="&#x109;" horiz-adv-x="948" 
d="M324 1528h294l158 -295h-215l-94 174l-98 -174h-201zM625 705q0 154 -62 201q-25 20 -71 20q-94 0 -125 -88t-31 -296t29 -288q31 -92 122 -90q72 0 105 61t33 197h270q0 -217 -97 -331t-322 -114t-317 118q-106 137 -106 456q0 469 266 553q82 27 181 26q197 0 296 -114
t99 -311h-270z" />
    <glyph glyph-name="Cdotaccent" unicode="&#x10a;" horiz-adv-x="1099" 
d="M668 1835v-242h-230v242h230zM727 969q0 161 -38 233t-142 72t-142 -123t-38 -365t11 -344q21 -193 94 -234q75 -39 156 -6q111 42 111 357h295q0 -274 -87 -412q-105 -168 -378 -170q-166 -1 -264 53q-185 101 -218 394q-15 139 -15 306t15 307q31 289 218 398
q98 56 260 56t253 -51q166 -93 193 -300q11 -91 11 -171h-295z" />
    <glyph glyph-name="cdotaccent" unicode="&#x10b;" horiz-adv-x="948" 
d="M588 1483v-242h-230v242h230zM625 705q0 154 -62 201q-25 20 -71 20q-94 0 -125 -88t-31 -296t29 -288q31 -92 122 -90q72 0 105 61t33 197h270q0 -217 -97 -331t-322 -114t-317 118q-106 137 -106 456q0 469 266 553q82 27 181 26q197 0 296 -114t99 -311h-270z" />
    <glyph glyph-name="Ccaron" unicode="&#x10c;" horiz-adv-x="1099" 
d="M248 1888h213l94 -174l98 174h203l-158 -295h-295zM727 969q0 161 -38 233t-142 72t-142 -123t-38 -365t11 -344q21 -193 94 -234q75 -39 156 -6q111 42 111 357h295q0 -274 -87 -412q-105 -168 -378 -170q-166 -1 -264 53q-185 101 -218 394q-15 139 -15 306t15 307
q31 289 218 398q98 56 260 56t253 -51q166 -93 193 -300q11 -91 11 -171h-295z" />
    <glyph glyph-name="ccaron" unicode="&#x10d;" horiz-adv-x="948" 
d="M168 1528h213l94 -174l98 174h203l-158 -295h-294zM625 705q0 154 -62 201q-25 20 -71 20q-94 0 -125 -88t-31 -296t29 -288q31 -92 122 -90q72 0 105 61t33 197h270q0 -217 -97 -331t-322 -114t-317 118q-106 137 -106 456q0 469 266 553q82 27 181 26q197 0 296 -114
t99 -311h-270z" />
    <glyph glyph-name="Dcaron" unicode="&#x10e;" horiz-adv-x="1175" 
d="M295 1860h213l94 -174l98 174h203l-158 -295h-294zM412 217h131q78 0 125 27q94 54 111 250q9 100 9 237t-8 231q-16 190 -109 251q-50 32 -134 32h-125v-1028zM117 1462h483q286 0 394 -193q89 -159 89 -538t-108 -555t-393 -176h-465v1462z" />
    <glyph glyph-name="dcaron" unicode="&#x10f;" horiz-adv-x="1556" 
d="M1425 1196q0 -184 -53 -269q-67 -107 -217 -122v143q53 10 80 58t27 104v33h-107v319h270v-266zM659 117h-4q-47 -78 -105 -109t-144 -31q-174 -1 -256 133t-82 441t82 443t243 136t250 -131h4v463h283v-1462h-271v117zM350 551.5q0 -179.5 28 -271.5t121 -92t121 92
t28 272t-28 270q-28 91 -121 91t-121 -91t-28 -270.5z" />
    <glyph glyph-name="Dcroat" unicode="&#x110;" horiz-adv-x="1175" 
d="M412 862h190v-217h-190v-428h131q78 0 125 27q94 54 111 250q9 100 9 237t-8 231q-16 190 -109 251q-50 32 -134 32h-125v-383zM117 645h-117v217h117v600h483q286 0 394 -193q89 -159 89 -538t-108 -555t-393 -176h-465v645z" />
    <glyph glyph-name="dcroat" unicode="&#x111;" horiz-adv-x="1024" 
d="M647 1368v94h283v-94h147v-192h-147v-1176h-271v117h-4q-47 -78 -105 -109t-144 -31q-174 -1 -256 133t-82 441t82 443t243 136t250 -131h4v177h-160v192h160zM350 551.5q0 -179.5 28 -271.5t121 -92t121 92t28 272t-28 270q-28 91 -121 91t-121 -91t-28 -270.5z" />
    <glyph glyph-name="Emacron" unicode="&#x112;" horiz-adv-x="985" 
d="M817 1720v-155h-596v155h596zM920 1462v-241h-523v-344h492v-242h-492v-393h543v-242h-838v1462h818z" />
    <glyph glyph-name="emacron" unicode="&#x113;" horiz-adv-x="948" 
d="M770 1397v-156h-596v156h596zM481 938q-108 0 -138 -141q-7 -39 -7 -78v-43h289q-5 134 -25 180t-48 64t-71 18zM336 508v-88q0 -175 74 -235q27 -22 65 -21q72 0 105 51t45 156h254q-9 -193 -103 -293t-297 -101q-275 0 -366 187q-41 84 -51 188q-9 104 -9 212
q0 258 77 392q100 174 347 174t340 -152q78 -127 78 -407v-63h-559z" />
    <glyph glyph-name="Ebreve" unicode="&#x114;" horiz-adv-x="985" 
d="M518 1720q59 0 103 37q43 37 49 96h131q0 -104 -59 -185q-76 -105 -225 -104t-222 104q-57 81 -57 185h129q6 -59 49 -96t102 -37zM920 1462v-241h-523v-344h492v-242h-492v-393h543v-242h-838v1462h818z" />
    <glyph glyph-name="ebreve" unicode="&#x115;" horiz-adv-x="948" 
d="M471 1393q59 0 102 37t50 96h131q0 -103 -67 -196t-216 -93t-223 103q-55 79 -58 186h129q5 -59 49 -96t103 -37zM481 938q-108 0 -138 -141q-7 -39 -7 -78v-43h289q-5 134 -25 180t-48 64t-71 18zM336 508v-88q0 -175 74 -235q27 -22 65 -21q72 0 105 51t45 156h254
q-9 -193 -103 -293t-297 -101q-275 0 -366 187q-41 84 -51 188q-9 104 -9 212q0 258 77 392q100 174 347 174t340 -152q78 -127 78 -407v-63h-559z" />
    <glyph glyph-name="Edotaccent" unicode="&#x116;" horiz-adv-x="985" 
d="M635 1806v-241h-229v241h229zM920 1462v-241h-523v-344h492v-242h-492v-393h543v-242h-838v1462h818z" />
    <glyph glyph-name="edotaccent" unicode="&#x117;" horiz-adv-x="948" 
d="M588 1483v-242h-230v242h230zM481 938q-108 0 -138 -141q-7 -39 -7 -78v-43h289q-5 134 -25 180t-48 64t-71 18zM336 508v-88q0 -175 74 -235q27 -22 65 -21q72 0 105 51t45 156h254q-9 -193 -103 -293t-297 -101q-275 0 -366 187q-41 84 -51 188q-9 104 -9 212
q0 258 77 392q100 174 347 174t340 -152q78 -127 78 -407v-63h-559z" />
    <glyph glyph-name="Eogonek" unicode="&#x118;" horiz-adv-x="985" 
d="M686 -453q-166 0 -166 184q0 85 64 157t188 112h-670v1462h818v-241h-523v-344h492v-242h-492v-393h543v-242h-31q-175 -109 -200 -191q-23 -67 11 -107q20 -24 70 -24t111 33l39 -117q-88 -47 -254 -47z" />
    <glyph glyph-name="eogonek" unicode="&#x119;" horiz-adv-x="948" 
d="M256 -276q0 167 193 253q-250 11 -336 187q-41 84 -51 188q-9 104 -9 212q0 258 77 392q100 174 347 174t340 -152q78 -127 78 -407v-63h-559v-88q0 -175 74 -235q26 -21 65 -21q72 0 105 51t45 156h254q-13 -306 -238 -373q-109 -66 -157 -126t-48 -104q0 -90 80 -90
q59 0 121 33l39 -117q-83 -44 -223 -47q-103 0 -150 50t-47 127zM481 938q-108 0 -138 -141q-7 -39 -7 -78v-43h289q-5 134 -25 180t-48 64t-71 18z" />
    <glyph glyph-name="Ecaron" unicode="&#x11a;" horiz-adv-x="985" 
d="M215 1860h213l94 -174l99 174h202l-157 -295h-295zM920 1462v-241h-523v-344h492v-242h-492v-393h543v-242h-838v1462h818z" />
    <glyph glyph-name="ecaron" unicode="&#x11b;" horiz-adv-x="948" 
d="M168 1528h213l94 -174l98 174h203l-158 -295h-294zM481 938q-108 0 -138 -141q-7 -39 -7 -78v-43h289q-5 134 -25 180t-48 64t-71 18zM336 508v-88q0 -175 74 -235q27 -22 65 -21q72 0 105 51t45 156h254q-9 -193 -103 -293t-297 -101q-275 0 -366 187q-41 84 -51 188
q-9 104 -9 212q0 258 77 392q100 174 347 174t340 -152q78 -127 78 -407v-63h-559z" />
    <glyph glyph-name="Gcircumflex" unicode="&#x11c;" 
d="M420 1888h295l157 -295h-215l-94 174l-98 -174h-201zM752 1028q0 93 -30 146q-56 100 -138 100q-106 0 -154 -119t-48 -401t30 -384t70 -142t104 -40t123 63t59 171v149h-195v217h478v-788h-217v135h-5q-53 -86 -128 -122.5t-195 -36.5t-204 48q-163 91 -198 389
q-16 143 -16 331q0 386 110 566t367 180.5t363 -119.5t106 -343h-282z" />
    <glyph glyph-name="gcircumflex" unicode="&#x11d;" horiz-adv-x="1024" 
d="M346 1528h295l158 -295h-215l-95 174l-98 -174h-201zM354 604q0 -145 5 -196q18 -179 137 -179q153 0 153 316q0 201 -32 285t-115 83q-48 0 -76 -20t-50 -82t-22 -207zM920 1102v-1047q0 -213 -106 -319t-353 -107q-180 0 -278 77q-97 77 -97 218h270q0 -77 87 -106
q24 -8 51 -8q155 0 155 192v145h-4q-43 -61 -105 -98t-130 -37q-168 0 -253 128t-85 402t58 405q81 183 288 183q59 0 123 -32q63 -33 104 -119h4v123h271z" />
    <glyph glyph-name="Gbreve" unicode="&#x11e;" 
d="M567 1749q59 0 103 37q43 37 49 96h131q0 -105 -58 -185q-76 -104 -226 -104t-222 104q-57 81 -57 185h129q6 -59 49 -96t102 -37zM752 1028q0 93 -30 146q-56 100 -138 100q-106 0 -154 -119t-48 -401t30 -384t70 -142t104 -40t123 63t59 171v149h-195v217h478v-788
h-217v135h-5q-53 -86 -128 -122.5t-195 -36.5t-204 48q-163 91 -198 389q-16 143 -16 331q0 386 110 566t367 180.5t363 -119.5t106 -343h-282z" />
    <glyph glyph-name="gbreve" unicode="&#x11f;" horiz-adv-x="1024" 
d="M494 1393q60 0 102 37t49 96h131q0 -104 -58 -186q-75 -103 -224 -103t-224 103q-57 81 -57 186h129q6 -59 49 -96t103 -37zM354 604q0 -145 5 -196q18 -179 137 -179q153 0 153 316q0 201 -32 285t-115 83q-48 0 -76 -20t-50 -82t-22 -207zM920 1102v-1047
q0 -213 -106 -319t-353 -107q-180 0 -278 77q-97 77 -97 218h270q0 -77 87 -106q24 -8 51 -8q155 0 155 192v145h-4q-43 -61 -105 -98t-130 -37q-168 0 -253 128t-85 402t58 405q81 183 288 183q59 0 123 -32q63 -33 104 -119h4v123h271z" />
    <glyph glyph-name="Gdotaccent" unicode="&#x120;" 
d="M684 1835v-242h-229v242h229zM752 1028q0 93 -30 146q-56 100 -138 100q-106 0 -154 -119t-48 -401t30 -384t70 -142t104 -40t123 63t59 171v149h-195v217h478v-788h-217v135h-5q-53 -86 -128 -122.5t-195 -36.5t-204 48q-163 91 -198 389q-16 143 -16 331q0 386 110 566
t367 180.5t363 -119.5t106 -343h-282z" />
    <glyph glyph-name="gdotaccent" unicode="&#x121;" horiz-adv-x="1024" 
d="M610 1483v-242h-229v242h229zM354 604q0 -145 5 -196q18 -179 137 -179q153 0 153 316q0 201 -32 285t-115 83q-48 0 -76 -20t-50 -82t-22 -207zM920 1102v-1047q0 -213 -106 -319t-353 -107q-180 0 -278 77q-97 77 -97 218h270q0 -77 87 -106q24 -8 51 -8q155 0 155 192
v145h-4q-43 -61 -105 -98t-130 -37q-168 0 -253 128t-85 402t58 405q81 183 288 183q59 0 123 -32q63 -33 104 -119h4v123h271z" />
    <glyph glyph-name="Gcommaaccent" unicode="&#x122;" 
d="M678 -229q0 -143 -47 -221t-170 -93v115q43 8 65 46t21 85v25h-86v252q29 -3 67 -3t76 7h-143v-4q-94 8 -169 50q-153 85 -188 383q-16 143 -16 331q0 386 110 566t367 180.5t363 -119.5t106 -343h-282q0 93 -30 146q-56 100 -138 100q-106 0 -154 -119t-48 -401t30 -384
t70 -142t104 -40t123 63t59 171v149h-195v217h478v-788h-217v135h-5q-80 -129 -225 -151h74v-213z" />
    <glyph glyph-name="gcommaaccent" unicode="&#x123;" horiz-adv-x="1024" 
d="M387 1446q0 146 48 224t169 89v-114q-42 -9 -64 -47t-22 -82v-27h86v-256h-217v213zM354 604q0 -145 5 -196q18 -179 137 -179q153 0 153 316q0 201 -32 285t-115 83q-48 0 -76 -20t-50 -82t-22 -207zM920 1102v-1047q0 -213 -106 -319t-353 -107q-180 0 -278 77
q-97 77 -97 218h270q0 -77 87 -106q24 -8 51 -8q155 0 155 192v145h-4q-43 -61 -105 -98t-130 -37q-168 0 -253 128t-85 402t58 405q81 183 288 183q59 0 123 -32q63 -33 104 -119h4v123h271z" />
    <glyph glyph-name="Hcircumflex" unicode="&#x124;" 
d="M420 1860h295l157 -295h-215l-94 174l-98 -174h-201zM102 1462h295v-559h344v559h295v-1462h-295v649h-344v-649h-295v1462z" />
    <glyph glyph-name="hcircumflex" unicode="&#x125;" horiz-adv-x="1024" 
d="M362 1860h295l158 -295h-215l-94 174l-98 -174h-201zM94 1462h283v-473h4q82 141 268 141q281 0 281 -313v-817h-283v760q0 86 -29 120t-92 33q-150 0 -149 -182v-731h-283v1462z" />
    <glyph glyph-name="Hbar" unicode="&#x126;" 
d="M102 1262v200h295v-200h344v200h295v-200h154v-193h-154v-1069h-295v649h-344v-649h-295v1069h-157v193h157zM741 903v166h-344v-166h344z" />
    <glyph glyph-name="hbar" unicode="&#x127;" horiz-adv-x="1024" 
d="M94 1384v78h283v-78h143v-192h-143v-203h4q82 141 268 141q281 0 281 -313v-817h-283v760q0 86 -29 120t-92 33q-150 0 -149 -182v-731h-283v1192h-164v192h164z" />
    <glyph glyph-name="Itilde" unicode="&#x128;" horiz-adv-x="528" 
d="M131 1819q57 0 88 -15l98 -43q31 -12 61 -12t44 27t14 47h146q-10 -111 -60 -183t-129 -71q-43 -1 -103 23t-88 35t-52 11q-49 0 -66 -73h-139q33 254 186 254zM117 0v1462h295v-1462h-295z" />
    <glyph glyph-name="itilde" unicode="&#x129;" horiz-adv-x="491" 
d="M131 1286q-49 0 -65 -74h-140q33 256 187 254q57 0 88 -14l98 -43q81 -31 104 15q14 26 15 46h145q-10 -110 -60 -182t-128 -71q-51 0 -191 58q-29 11 -53 11zM104 1102h283v-1102h-283v1102z" />
    <glyph glyph-name="Imacron" unicode="&#x12a;" horiz-adv-x="528" 
d="M561 1720v-155h-596v155h596zM117 0v1462h295v-1462h-295z" />
    <glyph glyph-name="imacron" unicode="&#x12b;" horiz-adv-x="491" 
d="M543 1368v-156h-596v156h596zM104 1102h283v-1102h-283v1102z" />
    <glyph glyph-name="Ibreve" unicode="&#x12c;" horiz-adv-x="528" 
d="M262 1720q59 0 103 37q43 37 49 96h133q0 -107 -60 -185q-79 -105 -228 -104t-219 104q-56 82 -56 185h127q6 -59 49 -96t102 -37zM117 0v1462h295v-1462h-295z" />
    <glyph glyph-name="ibreve" unicode="&#x12d;" horiz-adv-x="491" 
d="M244 1370q60 0 102 37t49 96h133q0 -179 -147 -259q-55 -30 -137 -30q-153 0 -222 104q-57 84 -57 185h127q6 -59 49 -96t103 -37zM104 1102h283v-1102h-283v1102z" />
    <glyph glyph-name="Iogonek" unicode="&#x12e;" horiz-adv-x="528" 
d="M117 0v1462h295v-1462h32q-175 -109 -200 -191q-8 -23 -8 -53t20 -54t69 -24t111 33l37 -117q-79 -44 -221 -47q-193 0 -196 183q-2 86 62 158t189 112h-190z" />
    <glyph glyph-name="iogonek" unicode="&#x12f;" horiz-adv-x="491" 
d="M104 1479h283v-242h-283v242zM217 -226q0 -96 89 -96q48 0 112 33l37 -117q-79 -44 -222 -47q-102 0 -149 50.5t-47 134.5t63 156t189 112h-185v1102h283v-1102h39q-209 -130 -209 -226z" />
    <glyph glyph-name="Idotaccent" unicode="&#x130;" horiz-adv-x="528" 
d="M379 1806v-241h-229v241h229zM117 0v1462h295v-1462h-295z" />
    <glyph glyph-name="dotlessi" unicode="&#x131;" horiz-adv-x="491" 
d="M104 1102h283v-1102h-283v1102z" />
    <glyph glyph-name="IJ" unicode="&#x132;" horiz-adv-x="1476" 
d="M1386 1462v-1052q0 -233 -108 -333q-109 -99 -332 -100q-315 0 -371 259q-16 78 -16 163v64h270v-45q0 -118 26 -174q25 -56 105 -56t106 56t26 174v1044h294zM117 0v1462h295v-1462h-295z" />
    <glyph glyph-name="ij" unicode="&#x133;" horiz-adv-x="983" 
d="M596 1479h283v-242h-283v242zM492 -150q70 0 87 42t17 128v1082h283v-1172q0 -146 -71 -215t-229 -69q-71 0 -133 4v205q12 -4 23 -5h23zM104 1479h283v-242h-283v242zM104 1102h283v-1102h-283v1102z" />
    <glyph glyph-name="Jcircumflex" unicode="&#x134;" horiz-adv-x="948" 
d="M569 1847h295l160 -295h-217l-94 174l-99 -174h-198zM858 1462v-1052q0 -233 -108 -333q-109 -99 -332 -100q-315 0 -371 259q-16 78 -16 163v64h270v-45q-1 -118 25 -174t106 -56t106 56t25 174v1044h295z" />
    <glyph glyph-name="jcircumflex" unicode="&#x135;" horiz-adv-x="491" 
d="M84 1505h295l160 -295h-217l-95 174l-98 -174h-199zM0 -150q70 0 87 42t17 128v1082h283v-1172q0 -70 -15 -123q-46 -161 -286 -161q-72 0 -131 4v205q12 -4 22 -5h23z" />
    <glyph glyph-name="Kcommaaccent" unicode="&#x136;" horiz-adv-x="1099" 
d="M729 -207q0 -144 -47 -221t-170 -92v114q43 8 65 46t21 86v24h-86v256h217v-213zM397 1462v-585h4l373 585h320l-398 -626l443 -836h-332l-301 600l-109 -166v-434h-295v1462h295z" />
    <glyph glyph-name="kcommaaccent" unicode="&#x137;" horiz-adv-x="1024" 
d="M678 -207q0 -144 -47 -221t-170 -92v114q43 8 65 46t21 86v24h-86v256h217v-213zM387 1462v-772h4l285 412h311l-317 -434l364 -668h-311l-236 453l-100 -131v-322h-283v1462h283z" />
    <glyph glyph-name="kgreenlandic" unicode="&#x138;" horiz-adv-x="1024" 
d="M387 690h4l285 412h311l-317 -434l364 -668h-311l-236 453l-100 -131v-322h-283v1102h283v-412z" />
    <glyph glyph-name="Lacute" unicode="&#x139;" horiz-adv-x="948" 
d="M424 1860h281l-199 -295h-193zM102 0v1462h295v-1220h523v-242h-818z" />
    <glyph glyph-name="lacute" unicode="&#x13a;" horiz-adv-x="491" 
d="M160 1860h280l-198 -295h-193zM104 1462h283v-1462h-283v1462z" />
    <glyph glyph-name="Lcommaaccent" unicode="&#x13b;" horiz-adv-x="948" 
d="M618 -207q0 -144 -47 -221t-170 -92v114q43 8 65 46t21 86v24h-86v250h-299v1462h295v-1220h523v-242h-302v6h-217v-6h217v-207z" />
    <glyph glyph-name="lcommaaccent" unicode="&#x13c;" horiz-adv-x="491" 
d="M354 -207q0 -144 -47 -221t-170 -92v114q43 8 65 46t21 86v24h-86v250h217v-207zM104 1462h283v-1462h-33v6h-217v-6h-33v1462z" />
    <glyph glyph-name="Lcaron" unicode="&#x13d;" horiz-adv-x="948" 
d="M205 1860h213l94 -174l98 174h203l-158 -295h-295zM102 0v1462h295v-1220h523v-242h-818z" />
    <glyph glyph-name="lcaron" unicode="&#x13e;" horiz-adv-x="491" 
d="M-59 1860h213l94 -174l98 174h203l-158 -295h-295zM104 1462h283v-1462h-283v1462z" />
    <glyph glyph-name="Ldot" unicode="&#x13f;" horiz-adv-x="948" 
d="M102 1462h295v-1220h523v-242h-818v1462zM831 1067v-319h-270v319h270z" />
    <glyph glyph-name="ldot" unicode="&#x140;" horiz-adv-x="876" 
d="M387 1462v-1462h-283v1462h283zM831 1067v-319h-270v319h270z" />
    <glyph glyph-name="Lslash" unicode="&#x141;" horiz-adv-x="948" 
d="M102 1462h295v-536l258 161v-217l-258 -161v-467h523v-242h-818v524l-102 -63v217l102 63v721z" />
    <glyph glyph-name="lslash" unicode="&#x142;" horiz-adv-x="491" 
d="M104 1462h283v-518l129 84v-180l-129 -84v-764h-283v578l-122 -86v180l122 86v704z" />
    <glyph glyph-name="Nacute" unicode="&#x143;" horiz-adv-x="1175" 
d="M803 461v1001h270v-1462h-336l-360 1024h-4v-1024h-271v1462h340l357 -1001h4zM866 1843l-200 -295h-193l111 295h282z" />
    <glyph glyph-name="nacute" unicode="&#x144;" horiz-adv-x="1024" 
d="M930 817v-817h-283v760q0 86 -29 120t-92 33q-150 0 -149 -182v-731h-283v1102h271v-129h4q87 159 280 157q281 0 281 -313zM791 1526l-201 -295h-193l111 295h283z" />
    <glyph glyph-name="Ncommaaccent" unicode="&#x145;" horiz-adv-x="1175" 
d="M696 -207q0 -144 -47 -221t-170 -92v114q43 8 65 46t21 86v24h-86v256h217v-213zM803 461v1001h270v-1462h-336l-360 1024h-4v-1024h-271v1462h340l357 -1001h4z" />
    <glyph glyph-name="ncedilla" unicode="&#x146;" horiz-adv-x="1024" 
d="M621 -207q0 -141 -34 -199t-76 -82t-108 -32v114q43 8 65 46t21 86v24h-86v256h218v-213zM930 817v-817h-283v760q0 86 -29 120t-92 33q-150 0 -149 -182v-731h-283v1102h271v-129h4q87 159 280 157q281 0 281 -313z" />
    <glyph glyph-name="Ncaron" unicode="&#x147;" horiz-adv-x="1175" 
d="M283 1860h213l94 -174l98 174h203l-158 -295h-295zM803 461v1001h270v-1462h-336l-360 1024h-4v-1024h-271v1462h340l357 -1001h4z" />
    <glyph glyph-name="ncaron" unicode="&#x148;" horiz-adv-x="1024" 
d="M207 1528h213l94 -174l98 174h203l-158 -295h-295zM930 817v-817h-283v760q0 86 -29 120t-92 33q-150 0 -149 -182v-731h-283v1102h271v-129h4q87 159 280 157q281 0 281 -313z" />
    <glyph glyph-name="napostrophe" unicode="&#x149;" horiz-adv-x="1433" 
d="M1339 0h-282v760q0 86 -29 120t-92 33q-150 0 -150 -182v-731h-282v1102h270v-129h4q87 159 281 157q282 0 280 -313v-817zM393 1202q0 -184 -53 -269q-67 -107 -217 -122v143q53 10 80 58t26 104v33h-106v319h270v-266z" />
    <glyph glyph-name="Eng" unicode="&#x14a;" horiz-adv-x="1175" 
d="M774 -354q-71 0 -131 4v205q12 -4 23 -5h22q70 0 86 44q16 37 19 106l-416 1024h-4v-1024h-271v1462h340l361 -985v985h270v-360h2v-1172q0 -148 -71 -216t-230 -68z" />
    <glyph glyph-name="eng" unicode="&#x14b;" horiz-adv-x="1024" 
d="M630 -354q-72 0 -132 4v205q12 -4 22 -5h23q70 0 86 44q16 37 18 106v760q0 86 -29 120t-92 33q-150 0 -149 -182v-731h-283v1102h271v-129h4q87 159 280 157q281 0 281 -313v-887q0 -146 -71 -215t-229 -69z" />
    <glyph glyph-name="Omacron" unicode="&#x14c;" 
d="M866 1749v-156h-596v156h596zM570 188q126 0 166 124q36 106 36 418t-29 398t-69 116t-105 30t-105 -30q-77 -59 -90 -263q-6 -103 -6 -332t28 -315t68 -116t106 -30zM72 730q0 166 15 307q31 289 218 398q98 56 264 56q305 0 415 -213q52 -100 77 -319t-9 -524
t-175 -381t-307 -76t-265 53q-185 101 -217 393q-16 140 -16 306z" />
    <glyph glyph-name="omacron" unicode="&#x14d;" horiz-adv-x="983" 
d="M788 1399v-156h-595v156h595zM492 164q86 0 118 90t33 297q0 207 -33 297t-123 90t-123 -109q-24 -82 -24 -281.5t20 -263.5t50 -92t82 -28zM57 548q0 297 101 440t334 142q244 4 338 -136t95 -438t-97 -438.5t-340 -142.5t-336.5 137t-94.5 436z" />
    <glyph glyph-name="Obreve" unicode="&#x14e;" 
d="M567 1749q59 0 103 37q43 37 49 96h131q0 -105 -58 -185q-76 -104 -226 -104t-222 104q-57 81 -57 185h129q6 -59 49 -96t102 -37zM570 188q126 0 166 124q36 106 36 418t-29 398t-69 116t-105 30t-105 -30q-77 -59 -90 -263q-6 -103 -6 -332t28 -315t68 -116t106 -30z
M72 730q0 166 15 307q31 289 218 398q98 56 264 56q305 0 415 -213q52 -100 77 -319t-9 -524t-175 -381t-307 -76t-265 53q-185 101 -217 393q-16 140 -16 306z" />
    <glyph glyph-name="obreve" unicode="&#x14f;" horiz-adv-x="983" 
d="M489 1393q59 0 103 37q43 37 49 96h131q0 -104 -58 -186q-75 -103 -224 -103t-224 103q-57 81 -57 186h129q6 -59 49 -96t102 -37zM492 164q86 0 118 90t33 297q0 207 -33 297t-123 90t-123 -109q-24 -82 -24 -281.5t20 -263.5t50 -92t82 -28zM57 548q0 297 101 440
t334 142q244 4 338 -136t95 -438t-97 -438.5t-340 -142.5t-336.5 137t-94.5 436z" />
    <glyph glyph-name="Ohungarumlaut" unicode="&#x150;" 
d="M651 1888h281l-201 -295h-190zM311 1888h283l-201 -295h-188zM570 188q126 0 166 124q36 106 36 418t-29 398t-69 116t-105 30t-105 -30q-77 -59 -90 -263q-6 -103 -6 -332t28 -315t68 -116t106 -30zM72 730q0 166 15 307q31 289 218 398q98 56 264 56q305 0 415 -213
q52 -100 77 -319t-9 -524t-175 -381t-307 -76t-265 53q-185 101 -217 393q-16 140 -16 306z" />
    <glyph glyph-name="ohungarumlaut" unicode="&#x151;" horiz-adv-x="983" 
d="M573 1530h281l-201 -295h-190zM233 1530h283l-201 -295h-188zM492 164q86 0 118 90t33 297q0 207 -33 297t-123 90t-123 -109q-24 -82 -24 -281.5t20 -263.5t50 -92t82 -28zM57 548q0 297 101 440t334 142q244 4 338 -136t95 -438t-97 -438.5t-340 -142.5t-336.5 137
t-94.5 436z" />
    <glyph glyph-name="OE" unicode="&#x152;" horiz-adv-x="1593" 
d="M367 731.5q0 -145.5 6 -249t27.5 -169t61.5 -95.5t106 -30t103.5 27t55.5 90.5t22.5 168t4.5 258t-4.5 258t-22.5 168t-55 90t-104 26.5t-106.5 -30t-61 -95.5t-27.5 -168.5t-6 -248.5zM514 1491q202 0 266 -107h4v78h748v-241h-496v-344h465v-242h-465v-393h512v-242
h-764v84h-4q-26 -58 -106 -82.5t-146 -24.5q-292 0 -363 172.5t-82 311.5t-11 283q0 346 91 546.5t351 200.5z" />
    <glyph glyph-name="oe" unicode="&#x153;" horiz-adv-x="1517" 
d="M1026.5 938q-60.5 0 -94 -64.5t-33.5 -154.5v-43h289q-4 139 -24.5 183t-48.5 61.5t-88.5 17.5zM645 551q0 207 -32.5 297t-118.5 90q-135 0 -143.5 -151.5t-8.5 -293.5t28 -235.5t120 -93.5t123.5 90t31.5 297zM1078 1130q208 0 294 -139.5t86 -419.5v-63h-559v-88
q0 -175 50 -215.5t89 -40.5q72 0 105 51t45 156h254q-8 -193 -100.5 -293.5t-282.5 -100.5q-129 0 -196.5 47.5t-90.5 108.5q-29 -78 -113.5 -117t-196.5 -39q-225 0 -314 136.5t-89 434.5t100.5 440t334.5 142q117 0 184 -37.5t108 -115.5q84 153 292 153z" />
    <glyph glyph-name="Racute" unicode="&#x154;" 
d="M512 1860h281l-199 -295h-193zM1036 1085q0 -308 -243 -360v-4q111 -16 167 -77t64 -262q2 -48 5 -136t13 -150t52 -84v-12h-320q-32 43 -37 154l-8 280q-4 86 -43 135t-131 49h-158v-618h-295v1462h545q185 0 287 -93t102 -284zM397 823h123q106 0 164 50q57 50 57 169
q0 203 -204 203h-140v-422z" />
    <glyph glyph-name="racute" unicode="&#x155;" horiz-adv-x="681" 
d="M297 1528h281l-199 -295h-193zM588 860q-142 0 -193 -105q-18 -38 -18 -93v-662h-283v1102h271v-148h4q95 176 254 176q25 0 51 -4v-270q-47 4 -86 4z" />
    <glyph glyph-name="Rcommaaccent" unicode="&#x156;" 
d="M707 -207q0 -141 -34 -199t-76 -82t-108 -32v114q43 8 65 46t21 86v24h-86v256h218v-213zM1036 1085q0 -308 -243 -360v-4q111 -16 167 -77t64 -262q2 -48 5 -136t13 -150t52 -84v-12h-320q-32 43 -37 154l-8 280q-4 86 -43 135t-131 49h-158v-618h-295v1462h545
q185 0 287 -93t102 -284zM397 823h123q106 0 164 50q57 50 57 169q0 203 -204 203h-140v-422z" />
    <glyph glyph-name="rcommaaccent" unicode="&#x157;" horiz-adv-x="681" 
d="M492 -207q0 -141 -34 -199t-76 -82t-108 -32v114q43 8 65 46t21 86v24h-86v250h103v6h115v-213zM588 860q-142 0 -193 -105q-18 -38 -18 -93v-656h-103v-6h-180v1102h271v-148h4q95 176 254 176q25 0 51 -4v-270q-47 4 -86 4z" />
    <glyph glyph-name="Rcaron" unicode="&#x158;" 
d="M293 1860h213l94 -174l98 174h203l-158 -295h-294zM1036 1085q0 -308 -243 -360v-4q111 -16 167 -77t64 -262q2 -48 5 -136t13 -150t52 -84v-12h-320q-32 43 -37 154l-8 280q-4 86 -43 135t-131 49h-158v-618h-295v1462h545q185 0 287 -93t102 -284zM397 823h123
q106 0 164 50q57 50 57 169q0 203 -204 203h-140v-422z" />
    <glyph glyph-name="rcaron" unicode="&#x159;" horiz-adv-x="681" 
d="M78 1528h213l94 -174l98 174h203l-158 -295h-295zM588 860q-142 0 -193 -105q-18 -38 -18 -93v-662h-283v1102h271v-148h4q95 176 254 176q25 0 51 -4v-270q-47 4 -86 4z" />
    <glyph glyph-name="Sacute" unicode="&#x15a;" horiz-adv-x="1062" 
d="M1018 420q0 -442 -379 -442t-487 108t-107 311v60h295v-43q0 -116 43 -170t152 -56q67 0 121 44t54 139t-56 147t-179.5 92.5t-195.5 79.5t-120 91q-95 103 -93 280q0 217 120 323q121 106 330 106t332 -96t123 -296v-41h-283q0 105 -37 161t-123 56q-136 0 -160 -106
t21 -178q29 -46 123 -85l227 -98q232 -102 267 -264q12 -55 12 -123zM809 1843l-201 -295h-192l110 295h283z" />
    <glyph glyph-name="sacute" unicode="&#x15b;" horiz-adv-x="909" 
d="M301 324q0 -72 38 -116t107 -44q146 0 146 131q0 53 -31 81t-72 44l-198 72q-234 82 -235 308t219 304q77 27 186 26q193 0 285 -82t92 -231v-45h-254q0 86 -28 126t-89 40t-101 -30t-40 -80t26 -83t97 -55l169 -57q132 -45 188 -118t56 -179q0 -354 -409 -359
q-331 0 -387 200q-18 65 -19 145v38h254v-36zM733 1526l-201 -295h-192l111 295h282z" />
    <glyph glyph-name="Scircumflex" unicode="&#x15c;" horiz-adv-x="1062" 
d="M381 1888h295l158 -295h-216l-94 174l-98 -174h-201zM1018 420q0 -442 -379 -442t-487 108t-107 311v60h295v-43q0 -116 43 -170t152 -56q67 0 121 44t54 139t-56 147t-179.5 92.5t-195.5 79.5t-120 91q-95 103 -93 280q0 217 120 323q121 106 330 106t332 -96t123 -296
v-41h-283q0 105 -37 161t-123 56q-136 0 -160 -106t21 -178q29 -46 123 -85l227 -98q232 -102 267 -264q12 -55 12 -123z" />
    <glyph glyph-name="scircumflex" unicode="&#x15d;" horiz-adv-x="909" 
d="M305 1528h295l158 -295h-215l-94 174l-99 -174h-200zM301 360v-36q0 -72 38 -116t107 -44q146 0 146 131q0 53 -31 81t-72 44l-198 72q-234 82 -235 308t219 304q77 27 186 26q193 0 285 -82t92 -231v-45h-254q0 86 -28 126t-89 40t-101 -30t-40 -80t26 -83t97 -55
l169 -57q132 -45 188 -118t56 -179q0 -354 -409 -359q-331 0 -387 200q-18 65 -19 145v38h254z" />
    <glyph glyph-name="Scedilla" unicode="&#x15e;" horiz-adv-x="1062" 
d="M45 397v60h295v-43q0 -116 43 -170t152 -56q67 0 121 44t54 139t-56 147t-179.5 92.5t-195.5 79.5t-120 91q-95 103 -93 280q0 217 120 323q121 106 330 106t332 -96t123 -296v-41h-283q0 105 -37 161t-123 56q-136 0 -160 -106t21 -178q29 -46 123 -85l227 -98
q232 -102 267 -264q12 -55 12 -123q0 -231 -134 -337q-109 -85 -287 -102l-75 -114q45 10 90 10t94.5 -39.5t51.5 -121.5t-64 -132t-198 -50t-197 38l39 94q56 -30 120 -30t94 20t30 50t-25 49t-64 19t-71 -12l-45 41l108 175q-230 5 -335 111t-105 308z" />
    <glyph glyph-name="scedilla" unicode="&#x15f;" horiz-adv-x="909" 
d="M47 360h254v-36q0 -72 38 -116t107 -44q146 0 146 131q0 53 -31 81t-72 44l-198 72q-234 82 -235 308t219 304q77 27 186 26q193 0 285 -82t92 -231v-45h-254q0 86 -28 126t-89 40t-101 -30t-40 -80t26 -83t97 -55l169 -57q132 -45 188 -118t56 -179t-31 -172
q-64 -132 -214 -168q-46 -11 -96 -16l-75 -113q115 26 185 -30q53 -39 53 -121t-66 -132t-198 -50t-197 38l39 94q56 -30 120 -30t94 20t30 50t-25 49t-64 19t-71 -12l-45 41l108 175q-290 10 -343 199q-18 65 -19 145v38z" />
    <glyph glyph-name="Scaron" unicode="&#x160;" horiz-adv-x="1062" 
d="M225 1843h217l95 -174l98 174h205l-160 -295h-295zM1018 420q0 -443 -508 -443q-250 0 -357.5 109t-107.5 311v60h295v-43q0 -114 43.5 -170t151.5 -56q68 0 122 44t54 138t-55 146t-180 94t-197 80.5t-142.5 115t-70.5 274.5t120.5 304.5t331.5 106.5
q322 0 387.5 -144.5t65.5 -248.5v-41h-283q0 104 -37 160.5t-125 56.5t-127 -47t-39 -119t29 -118t123 -85l227 -98q159 -70 219 -158t60 -229z" />
    <glyph glyph-name="scaron" unicode="&#x161;" horiz-adv-x="909" 
d="M147 1526h218l94 -174l98 174h205l-160 -295h-295zM301 360v-36q0 -72 38 -116t107 -44q146 0 146 131q0 53 -31 80.5t-72 44.5l-198 72q-236 83 -236 309t148.5 277.5t257.5 51.5q193 0 285 -81.5t92 -231.5v-45h-254q0 86 -28 126t-89 40t-101 -30t-40 -80t25.5 -82.5
t97.5 -55.5l169 -57q133 -45 188.5 -118t55.5 -179q0 -359 -409 -359q-230 0 -318 86t-88 259v38h254z" />
    <glyph glyph-name="Tcedilla" unicode="&#x162;" horiz-adv-x="983" 
d="M543 -280q0 30 -36 59t-124 -2l-45 41l113 182h-107v1221h-319v241h933v-241h-319v-1221h-78l-78 -119q45 10 72 10t57 -10q108 -36 109 -134q0 -198 -256 -200q-135 0 -205 39l39 95q59 -31 121 -31t92.5 20t30.5 50z" />
    <glyph glyph-name="tcedilla" unicode="&#x163;" horiz-adv-x="606" 
d="M270 -211q-39 0 -71 -12l-45 41l112 182h47q-77 8 -107 46t-40 93t-10 140v630h-144v193h144v315h282v-315h164v-193h-164v-596q0 -66 23 -99t141 -17v-197l-184 -6q-23 0 -45 1l-74 -114q45 10 90 10t82 -29q64 -50 65 -132t-65 -132t-162 -50q-163 -1 -233 38l39 95
q59 -31 121 -31t93 20q29 20 29 50t-24 50q-25 19 -64 19z" />
    <glyph glyph-name="Tcaron" unicode="&#x164;" horiz-adv-x="983" 
d="M186 1860h213l95 -174l98 174h203l-158 -295h-295zM958 1462v-241h-319v-1221h-295v1221h-319v241h933z" />
    <glyph glyph-name="tcaron" unicode="&#x165;" 
d="M1008 1196q0 -182 -54 -269q-67 -107 -217 -122v143q53 10 80 58t27 104v33h-107v319h271v-266zM156 279v630h-144v193h144v315h282v-315h164v-193h-164v-596q0 -66 23 -99t141 -17v-197l-184 -6q-82 0 -134 11t-80 45q-48 58 -48 229z" />
    <glyph glyph-name="Tbar" unicode="&#x166;" horiz-adv-x="983" 
d="M344 909v312h-319v241h933v-241h-319v-312h195v-192h-195v-717h-295v717h-182v192h182z" />
    <glyph glyph-name="tbar" unicode="&#x167;" horiz-adv-x="606" 
d="M156 279v215h-144v192h144v223h-144v193h144v315h282v-315h164v-193h-164v-223h164v-192h-164v-181q0 -66 23 -99t141 -17v-197l-184 -6q-82 0 -134 11t-80 45q-48 58 -48 229z" />
    <glyph glyph-name="Utilde" unicode="&#x168;" horiz-adv-x="1101" 
d="M665 1749q30 0 44 27t14 47h145q-10 -111 -60 -183t-128 -71q-48 1 -132 35t-112 34q-49 0 -65 -73h-140q33 254 187 254q57 0 88 -15l98 -43q31 -12 61 -12zM379 1462v-1020q1 -123 27 -168.5t60 -65.5t86 -20t85 20q86 51 86 234v1020h295v-1020q0 -258 -144 -374
q-110 -89 -324 -90t-323 82q-143 108 -143 382v1020h295z" />
    <glyph glyph-name="utilde" unicode="&#x169;" horiz-adv-x="1024" 
d="M684 1470h145q-10 -110 -60 -182t-128 -71q-55 0 -190 58q-29 11 -54 11q-49 0 -65 -74h-139q33 256 186 254q57 0 88 -14l98 -43q80 -31 99.5 5t19.5 56zM94 285v817h283v-760q0 -86 29 -120t92 -34q150 0 149 183v731h283v-1102h-271v129h-4q-83 -152 -280 -152
q-135 0 -208 71t-73 237z" />
    <glyph glyph-name="Umacron" unicode="&#x16a;" horiz-adv-x="1101" 
d="M848 1720v-155h-596v155h596zM379 1462v-1020q1 -123 27 -168.5t60 -65.5t86 -20t85 20q86 51 86 234v1020h295v-1020q0 -258 -144 -374q-110 -89 -324 -90t-323 82q-143 108 -143 382v1020h295z" />
    <glyph glyph-name="umacron" unicode="&#x16b;" horiz-adv-x="1024" 
d="M809 1368v-156h-596v156h596zM94 285v817h283v-760q0 -86 29 -120t92 -34q150 0 149 183v731h283v-1102h-271v129h-4q-83 -152 -280 -152q-135 0 -208 71t-73 237z" />
    <glyph glyph-name="Ubreve" unicode="&#x16c;" horiz-adv-x="1101" 
d="M548 1720q60 0 103 37t49 96h131q0 -105 -58 -185q-76 -105 -225 -104t-222 104q-55 79 -58 185h129q7 -59 49 -96t102 -37zM379 1462v-1020q1 -123 27 -168.5t60 -65.5t86 -20t85 20q86 51 86 234v1020h295v-1020q0 -258 -144 -374q-110 -89 -324 -90t-323 82
q-143 108 -143 382v1020h295z" />
    <glyph glyph-name="ubreve" unicode="&#x16d;" horiz-adv-x="1024" 
d="M510 1368q58 0 101.5 37t50.5 96h131q0 -104 -59 -185q-76 -104 -225 -104t-222 104q-55 79 -58 185h129q6 -59 50 -96t102 -37zM94 285v817h283v-760q0 -86 29 -120t92 -34q150 0 149 183v731h283v-1102h-271v129h-4q-83 -152 -280 -152q-135 0 -208 71t-73 237z" />
    <glyph glyph-name="Uring" unicode="&#x16e;" horiz-adv-x="1101" 
d="M430 1798q0 -49 35 -84t84 -35t84 35t35 84t-35 84t-84 35t-84 -35t-35 -84zM780 1798q0 -98 -67 -165t-164 -67t-163 66t-67 166q0 100 66.5 166t162.5 67t164 -67t68 -166zM379 1462v-1020q1 -123 27 -168.5t60 -65.5t86 -20t85 20q86 51 86 234v1020h295v-1020
q0 -258 -144 -374q-110 -89 -324 -90t-323 82q-143 108 -143 382v1020h295z" />
    <glyph glyph-name="uring" unicode="&#x16f;" horiz-adv-x="1024" 
d="M391 1438q0 -50 35 -84.5t84 -34.5t84 35t35 84.5t-35 83.5t-84 34t-84 -34t-35 -84zM510 1671q97 0 164 -67q66 -66 66 -166t-66 -166t-163 -67t-163 65t-66 168t65 167q66 66 163 66zM94 285v817h283v-760q0 -86 29 -120t92 -34q150 0 149 183v731h283v-1102h-271v129
h-4q-83 -152 -280 -152q-135 0 -208 71t-73 237z" />
    <glyph glyph-name="Uhungarumlaut" unicode="&#x170;" horiz-adv-x="1101" 
d="M633 1860h280l-200 -295h-191zM293 1860h282l-200 -295h-189zM379 1462v-1020q1 -123 27 -168.5t60 -65.5t86 -20t85 20q86 51 86 234v1020h295v-1020q0 -258 -144 -374q-110 -89 -324 -90t-323 82q-143 108 -143 382v1020h295z" />
    <glyph glyph-name="uhungarumlaut" unicode="&#x171;" horiz-adv-x="1024" 
d="M594 1507h280l-200 -295h-191zM254 1507h283l-201 -295h-189zM94 285v817h283v-760q0 -86 29 -120t92 -34q150 0 149 183v731h283v-1102h-271v129h-4q-83 -152 -280 -152q-135 0 -208 71t-73 237z" />
    <glyph glyph-name="Uogonek" unicode="&#x172;" horiz-adv-x="1101" 
d="M522 -254q0 -82 92 -82q51 0 109 33l37 -117q-84 -47 -221 -47q-197 0 -197 183q0 86 61 154t168 108h-55t-139 16q-183 36 -254 209q-39 92 -39 239v1020h295v-1020q1 -123 27 -168.5t60 -65.5t86 -20t85 20q86 51 86 234v1020h295v-1020q0 -408 -350 -456h63
q-209 -130 -209 -240z" />
    <glyph glyph-name="uogonek" unicode="&#x173;" horiz-adv-x="1024" 
d="M518 -467q-120 0 -168 49q-47 49 -47 134q-1 85 63 157t189 113h137q-206 -128 -208 -225t79 -97q63 0 121 33l37 -117q-83 -47 -203 -47zM94 285v817h283v-760q0 -86 29 -120t92 -34q150 0 149 183v731h283v-1102h-271v129h-4q-83 -152 -280 -152q-135 0 -208 71
t-73 237z" />
    <glyph glyph-name="Wcircumflex" unicode="&#x174;" horiz-adv-x="1556" 
d="M629 1860h295l157 -295h-215l-94 174l-98 -174h-201zM16 1462h283l162 -1081h4l172 1081h283l172 -1081h4l161 1081h283l-266 -1462h-330l-164 1061h-4l-164 -1061h-329z" />
    <glyph glyph-name="wcircumflex" unicode="&#x175;" horiz-adv-x="1441" 
d="M571 1507h295l158 -295h-215l-94 174l-99 -174h-200zM14 1102h283l129 -783h4l137 783h307l146 -783h4l133 783h270l-237 -1102h-322l-145 782h-4l-137 -782h-328z" />
    <glyph glyph-name="Ycircumflex" unicode="&#x176;" horiz-adv-x="1064" 
d="M383 1860h295l158 -295h-215l-95 174l-98 -174h-201zM680 0h-295v575l-379 887h332l192 -565h5l204 565h320l-379 -887v-575z" />
    <glyph glyph-name="ycircumflex" unicode="&#x177;" horiz-adv-x="909" 
d="M305 1507h295l158 -295h-215l-94 174l-99 -174h-200zM209 -354h-115v211q36 -7 94 -7t92 41t39 109l-309 1102h295l164 -762h4l143 762h283l-266 -1028q-37 -137 -71 -222q-66 -165 -190 -192q-65 -14 -163 -14z" />
    <glyph glyph-name="Ydieresis" unicode="&#x178;" horiz-adv-x="1064" 
d="M594 1808h229v-241h-229v241zM242 1808h229v-241h-229v241zM680 0h-295v575l-379 887h332l192 -565h5l204 565h320l-379 -887v-575z" />
    <glyph glyph-name="Zacute" unicode="&#x179;" horiz-adv-x="985" 
d="M86 1221v241h842v-223l-547 -997h555v-242h-887v215l539 1006h-502zM770 1843l-201 -295h-192l110 295h283z" />
    <glyph glyph-name="zacute" unicode="&#x17a;" horiz-adv-x="872" 
d="M70 872v230h753v-217l-440 -656h440v-229h-774v217l440 655h-419zM715 1526l-201 -295h-192l110 295h283z" />
    <glyph glyph-name="Zdotaccent" unicode="&#x17b;" horiz-adv-x="985" 
d="M86 1221v241h842v-223l-547 -997h555v-242h-887v215l539 1006h-502zM606 1567h-229v241h229v-241z" />
    <glyph glyph-name="zdotaccent" unicode="&#x17c;" horiz-adv-x="872" 
d="M70 872v230h753v-217l-440 -656h440v-229h-774v217l440 655h-419zM551 1249h-229v242h229v-242z" />
    <glyph glyph-name="Zcaron" unicode="&#x17d;" horiz-adv-x="985" 
d="M186 1843h217l95 -174l98 174h205l-160 -295h-295zM86 1221v241h842v-223l-547 -997h555v-242h-887v215l539 1006h-502z" />
    <glyph glyph-name="zcaron" unicode="&#x17e;" horiz-adv-x="872" 
d="M129 1526h217l94 -174l99 174h204l-159 -295h-295zM70 872v230h753v-217l-440 -656h440v-229h-774v217l440 655h-419z" />
    <glyph glyph-name="longs" unicode="&#x17f;" horiz-adv-x="606" 
d="M12 909v193h144v125q0 211 172 251q55 13 127 13t147 -6v-201q-10 2 -29 2h-26q-59 0 -84 -20t-25 -68v-1198h-282v909h-144z" />
    <glyph glyph-name="uni018E" unicode="&#x18e;" horiz-adv-x="985" 
d="M123 242h522v344h-491v241h491v394h-543v241h838v-1462h-817v242z" />
    <glyph glyph-name="uni018F" unicode="&#x18f;" horiz-adv-x="1124" 
d="M72 622v143q0 46 4 93h680q-8 228 -39 300t-68 96t-94 24q-92 0 -129 -65t-51 -199h-293q26 234 129 356t344 121q166 0 264 -56q187 -107 220 -412t-2 -600q-15 -138 -67 -238q-109 -208 -404 -208t-407 200q-87 156 -87 445zM555 184q59 0 97 25q76 50 92 217
q9 84 12 205h-389q5 -257 31 -327t62 -95t95 -25z" />
    <glyph glyph-name="florin" unicode="&#x192;" horiz-adv-x="983" 
d="M869 1270q-88 0 -124.5 -48.5t-64.5 -195.5l-31 -149h225l-30 -168h-228l-133 -701q-36 -186 -122.5 -274t-284.5 -88q-102 0 -142 14l41 186q25 -8 87 -8t96 41t57 154l131 676h-215l33 168h215l35 182q40 219 130 311t275 92q102 0 154 -6l-39 -192q-24 6 -65 6z" />
    <glyph glyph-name="Ohorn" unicode="&#x1a0;" horiz-adv-x="1486" 
d="M72 730q0 166 15 307q31 289 218 398q99 56 265 56t260 -54t147 -145l20 -20q35 -35 61 -52t77 -18h2q53 0 68 67t16 193h200q0 -250 -55 -344t-217 -94q-55 0 -98 20q0 -4 8 -76t8 -238q1 -166 -15 -306t-68 -240t-150 -153t-264 -53t-265 53q-185 101 -217 393
q-16 140 -16 306zM570 188q126 0 166 124q36 106 36 418t-29 398t-69 116t-105 30t-105 -30q-77 -59 -90 -263q-6 -103 -6 -332t28 -315t68 -116t106 -30z" />
    <glyph glyph-name="ohorn" unicode="&#x1a1;" horiz-adv-x="1370" 
d="M1012 854h2q53 0 68 67t16 193h200q0 -248 -55 -344t-217 -94q-57 0 -106 24q6 -70 6 -180q0 -411 -231 -508q-83 -35 -207 -36q-244 -2 -338 136t-93 436q0 298 101 440.5t334 141.5q245 4 344 -143q16 -27 30 -55q43 -42 69 -60t77 -18zM492 164q86 0 118 90t33 297
q0 207 -33 297t-123 90t-123 -109q-24 -82 -24 -281.5t20 -263.5t50 -92t82 -28z" />
    <glyph glyph-name="uni01A2" unicode="&#x1a2;" horiz-adv-x="1566" 
d="M1169 1221h-180v-1026q-131 -217 -428 -217t-406 207q-51 99 -67 237t-16 306t15 309q31 289 218 398q99 56 241 56t224 -29h694v-1816h-295v1575zM576 1274q-72 0 -112 -30q-77 -59 -90 -263q-6 -102 -6 -331q0 -230 28 -316t68 -116t120 -30t110 50v989q-46 47 -118 47
z" />
    <glyph glyph-name="uni01A3" unicode="&#x1a3;" horiz-adv-x="1394" 
d="M1300 1102v-1456h-282v1243h-160v-721q-116 -190 -364 -191t-341 135t-96 439q0 141 23 250q70 331 402 329q111 0 175 -28h643zM490 938q-52 0 -81 -29q-54 -53 -65 -202q-4 -72 -4 -156t4 -156q13 -231 147 -231q52 0 84 33v708q-33 33 -85 33z" />
    <glyph glyph-name="uni01A7" unicode="&#x1a7;" horiz-adv-x="1062" 
d="M535 1274q-86 0 -123 -56t-37 -161h-283v41q0 200 121 296t332 96t332 -106t120 -323q0 -179 -89.5 -277t-267.5 -158t-220 -98t-54.5 -74t-13.5 -85q0 -93 54 -137t117 -44q167 0 192 133q8 42 8 93v43h295v-60q0 -203 -108 -311t-357 -109q-508 0 -508 443
q0 144 61 232t218 155l227 98q94 39 123 85t28 114q0 170 -167 170z" />
    <glyph glyph-name="uni01A8" unicode="&#x1a8;" horiz-adv-x="909" 
d="M72 817q0 313 291 313t391 -92t100 -224t-59 -207t-177 -115l-198 -72q-41 -16 -72 -44t-31 -88t39.5 -92t107.5 -32t106 44t38 116v36h254v-38q0 -176 -83 -254q-93 -91 -322 -91q-289 0 -379 188q-31 65 -31 171t55 179t189 118l170 57q71 24 97 56t26 82t-40 80
t-102 30t-90 -40t-26 -126h-254v45z" />
    <glyph glyph-name="Uhorn" unicode="&#x1af;" horiz-adv-x="1572" 
d="M1220 1024q-95 0 -202 100v-682q0 -258 -144 -374q-110 -89 -324 -90t-323 82q-143 108 -143 382v1020h295v-1020q1 -123 27 -168.5t60 -65.5t86 -20t85 20q86 51 86 234v1020h295v-131l61 -59q35 -35 61 -52t77 -18h2q53 0 68 67t16 193h200q0 -249 -52 -339
q-30 -51 -83 -75t-148 -24z" />
    <glyph glyph-name="uhorn" unicode="&#x1b0;" horiz-adv-x="1458" 
d="M94 285v817h283v-760q0 -86 29 -120t92 -34q150 0 149 183v731h283v-133l47 -45q35 -34 61 -52t76 -18h2q53 0 69 67q15 67 15 193h201q0 -248 -55 -344t-218 -94q-106 0 -198 88v-764h-271v129h-4q-83 -152 -280 -152q-135 0 -208 71t-73 237z" />
    <glyph glyph-name="uni01B5" unicode="&#x1b5;" horiz-adv-x="985" 
d="M121 635v242h282l185 344h-502v241h842v-223l-199 -362h160v-242h-293l-215 -393h555v-242h-887v215l225 420h-153z" />
    <glyph glyph-name="uni01B6" unicode="&#x1b6;" horiz-adv-x="872" 
d="M94 473v186h252l143 213h-419v230h753v-217l-151 -226h119v-186h-244l-164 -244h440v-229h-774v217l172 256h-127z" />
    <glyph glyph-name="clickdental" unicode="&#x1c0;" horiz-adv-x="454" 
d="M100 1491h254v-1514h-254v1514z" />
    <glyph glyph-name="clicklateral" unicode="&#x1c1;" horiz-adv-x="909" 
d="M555 1491h254v-1514h-254v1514zM100 1491h254v-1514h-254v1514z" />
    <glyph glyph-name="clickretroflex" unicode="&#x1c3;" horiz-adv-x="606" 
d="M444 270v-270h-282v270h282zM162 1462h282v-475l-38 -579h-205l-39 579v475z" />
    <glyph glyph-name="DZcaron" unicode="&#x1c4;" horiz-adv-x="2160" 
d="M1364 1860h211l94 -174l98 174h205l-160 -295h-294zM1262 1221v241h841v-223l-547 -997h555v-242h-886v215l538 1006h-501zM412 217h131q78 0 125 27q94 54 111 250q9 100 9 237t-8 231q-16 190 -109 251q-50 32 -134 32h-125v-1028zM117 1462h483q286 0 394 -193
q89 -159 89 -538t-108 -555t-393 -176h-465v1462z" />
    <glyph glyph-name="Dzcaron" unicode="&#x1c5;" horiz-adv-x="2048" 
d="M1309 1509h211l94 -174l98 174h205l-160 -295h-295zM1245 872v230h754v-217l-440 -656h440v-229h-774v217l440 655h-420zM412 217h131q78 0 125 27q94 54 111 250q9 100 9 237t-8 231q-16 190 -109 251q-50 32 -134 32h-125v-1028zM117 1462h483q286 0 394 -193
q89 -159 89 -538t-108 -555t-393 -176h-465v1462z" />
    <glyph glyph-name="dzcaron" unicode="&#x1c6;" horiz-adv-x="1896" 
d="M1157 1509h211l94 -174l99 174h204l-159 -295h-295zM1094 872v230h753v-217l-440 -656h440v-229h-774v217l440 655h-419zM659 117h-4q-47 -78 -105 -109t-144 -31q-174 -1 -256 133t-82 441t82 443t243 136t250 -131h4v463h283v-1462h-271v117zM350 551.5
q0 -179.5 28 -271.5t121 -92t121 92t28 272t-28 270q-28 91 -121 91t-121 -91t-28 -270.5z" />
    <glyph glyph-name="LJ" unicode="&#x1c7;" horiz-adv-x="1896" 
d="M1806 1462v-1052q0 -233 -108 -333q-109 -99 -332 -100q-315 0 -371 259q-16 78 -16 163v64h270v-45q-1 -118 25 -174t106 -56t106 56t25 174v1044h295zM102 0v1462h295v-1220h523v-242h-818z" />
    <glyph glyph-name="Lj" unicode="&#x1c8;" horiz-adv-x="1439" 
d="M1053 1479h282v-242h-282v242zM1036 -354q-71 0 -133 4v205q12 -4 23 -5h22q70 0 87 42t18 128v1082h282v-1172q-1 -148 -71 -216t-228 -68zM102 0v1462h295v-1220h523v-242h-818z" />
    <glyph glyph-name="lj" unicode="&#x1c9;" horiz-adv-x="983" 
d="M596 1479h283v-242h-283v242zM492 -150q70 0 87 42t17 128v1082h283v-1172q0 -146 -71 -215t-229 -69q-71 0 -133 4v205q12 -4 23 -5h23zM104 1462h283v-1462h-283v1462z" />
    <glyph glyph-name="NJ" unicode="&#x1ca;" horiz-adv-x="2123" 
d="M2034 1462v-1052q0 -232 -109 -332t-332 -101q-318 0 -370 259q-16 78 -17 163v64h271v-45q-1 -118 25 -174t106 -56t106 56t25 174v1044h295zM803 461v1001h270v-1462h-336l-360 1024h-4v-1024h-271v1462h340l357 -1001h4z" />
    <glyph glyph-name="Nj" unicode="&#x1cb;" horiz-adv-x="1667" 
d="M1280 1479h283v-242h-283v242zM1263 -354q-71 0 -133 4v205q12 -4 23 -5h23q70 0 87 42t17 128v1082h283v-1172q0 -146 -71 -215t-229 -69zM803 461v1001h270v-1462h-336l-360 1024h-4v-1024h-271v1462h340l357 -1001h4z" />
    <glyph glyph-name="nj" unicode="&#x1cc;" horiz-adv-x="1515" 
d="M1128 1479h283v-242h-283v242zM1024 -150q70 0 87 42t17 128v1082h283v-1172q0 -70 -15 -123q-46 -161 -286 -161q-72 0 -131 4v205q12 -4 22 -5h23zM930 817v-817h-283v760q0 86 -29 120t-92 33q-150 0 -149 -182v-731h-283v1102h271v-129h4q87 159 280 157
q281 0 281 -313z" />
    <glyph glyph-name="Acaron" unicode="&#x1cd;" 
d="M266 1860h211l94 -174l99 174h204l-159 -295h-295zM713 551l-142 657h-4l-141 -657h287zM752 1462l387 -1462h-308l-67 309h-389l-68 -309h-307l387 1462h365z" />
    <glyph glyph-name="acaron" unicode="&#x1ce;" horiz-adv-x="985" 
d="M182 1528h211l94 -174l99 174h205l-160 -295h-295zM434 164q70 0 116 39q58 45 58 131v217q-49 -39 -128 -56q-152 -33 -152 -182t106 -149zM338 -23q-154 0 -216 90t-64 194q-2 176 63 253t215 117l160 43q63 16 88 45q24 29 24 88q-1 131 -131 131q-67 0 -99 -39
t-32 -104v-31h-254v27q0 177 114 265q96 74 248 74t230 -24t121 -70q72 -75 74 -243v-580q0 -130 34 -213h-270q-14 26 -35 115h-4q-50 -86 -114 -112t-152 -26z" />
    <glyph glyph-name="Icaron" unicode="&#x1cf;" horiz-adv-x="528" 
d="M-39 1860h211l94 -174l99 174h204l-159 -295h-295zM117 0v1462h295v-1462h-295z" />
    <glyph glyph-name="icaron" unicode="&#x1d0;" horiz-adv-x="491" 
d="M-57 1509h211l94 -174l98 174h205l-160 -295h-295zM104 1102h283v-1102h-283v1102z" />
    <glyph glyph-name="Ocaron" unicode="&#x1d1;" 
d="M266 1888h211l94 -174l99 174h204l-159 -295h-295zM570 188q126 0 166 124q36 106 36 418t-29 398t-69 116t-105 30t-105 -30q-77 -59 -90 -263q-6 -103 -6 -332t28 -315t68 -116t106 -30zM72 730q0 166 15 307q31 289 218 398q98 56 264 56q305 0 415 -213
q52 -100 77 -319t-9 -524t-175 -381t-307 -76t-265 53q-185 101 -217 393q-16 140 -16 306z" />
    <glyph glyph-name="ocaron" unicode="&#x1d2;" horiz-adv-x="983" 
d="M188 1530h211l95 -174l98 174h205l-160 -295h-295zM492 164q86 0 118 90t33 297q0 207 -33 297t-123 90t-123 -109q-24 -82 -24 -281.5t20 -263.5t50 -92t82 -28zM57 548q0 297 101 440t334 142q244 4 338 -136t95 -438t-97 -438.5t-340 -142.5t-336.5 137t-94.5 436z
" />
    <glyph glyph-name="Ucaron" unicode="&#x1d3;" horiz-adv-x="1101" 
d="M248 1860h211l94 -174l98 174h205l-160 -295h-295zM379 1462v-1020q1 -123 27 -168.5t60 -65.5t86 -20t85 20q86 51 86 234v1020h295v-1020q0 -258 -144 -374q-110 -89 -324 -90t-323 82q-143 108 -143 382v1020h295z" />
    <glyph glyph-name="ucaron" unicode="&#x1d4;" horiz-adv-x="1024" 
d="M209 1509h211l94 -174l98 174h205l-160 -295h-295zM94 285v817h283v-760q0 -86 29 -120t92 -34q150 0 149 183v731h283v-1102h-271v129h-4q-83 -152 -280 -152q-135 0 -208 71t-73 237z" />
    <glyph glyph-name="Udieresismacron" unicode="&#x1d5;" horiz-adv-x="1101" 
d="M850 2064v-155h-596v155h596zM610 1806h230v-241h-230v241zM264 1806h223v-241h-223v241zM379 1462v-1020q1 -123 27 -168.5t60 -65.5t86 -20t85 20q86 51 86 234v1020h295v-1020q0 -258 -144 -374q-110 -89 -324 -90t-323 82q-143 108 -143 382v1020h295z" />
    <glyph glyph-name="udieresismacron" unicode="&#x1d6;" horiz-adv-x="1024" 
d="M811 1704v-156h-596v156h596zM571 1456h230v-242h-230v242zM225 1456h224v-242h-224v242zM94 285v817h283v-760q0 -86 29 -120t92 -34q150 0 149 183v731h283v-1102h-271v129h-4q-83 -152 -280 -152q-135 0 -208 71t-73 237z" />
    <glyph glyph-name="Udieresisacute" unicode="&#x1d7;" horiz-adv-x="1101" 
d="M559 2204h283l-201 -295h-192zM610 1806h230v-241h-230v241zM264 1806h223v-241h-223v241zM379 1462v-1020q1 -123 27 -168.5t60 -65.5t86 -20t85 20q86 51 86 234v1020h295v-1020q0 -258 -144 -374q-110 -89 -324 -90t-323 82q-143 108 -143 382v1020h295z" />
    <glyph glyph-name="udieresisacute" unicode="&#x1d8;" horiz-adv-x="1024" 
d="M530 1843h283l-201 -295h-192zM571 1456h230v-242h-230v242zM225 1456h224v-242h-224v242zM94 285v817h283v-760q0 -86 29 -120t92 -34q150 0 149 183v731h283v-1102h-271v129h-4q-83 -152 -280 -152q-135 0 -208 71t-73 237z" />
    <glyph glyph-name="Udieresiscaron" unicode="&#x1d9;" horiz-adv-x="1101" 
d="M248 2204h211l94 -174l98 174h205l-160 -295h-295zM610 1806h230v-241h-230v241zM264 1806h223v-241h-223v241zM379 1462v-1020q1 -123 27 -168.5t60 -65.5t86 -20t85 20q86 51 86 234v1020h295v-1020q0 -258 -144 -374q-110 -89 -324 -90t-323 82q-143 108 -143 382
v1020h295z" />
    <glyph glyph-name="udieresiscaron" unicode="&#x1da;" horiz-adv-x="1024" 
d="M209 1843h211l94 -174l98 174h205l-160 -295h-295zM571 1456h230v-242h-230v242zM225 1456h224v-242h-224v242zM94 285v817h283v-760q0 -86 29 -120t92 -34q150 0 149 183v731h283v-1102h-271v129h-4q-83 -152 -280 -152q-135 0 -208 71t-73 237z" />
    <glyph glyph-name="Udieresisgrave" unicode="&#x1db;" horiz-adv-x="1101" 
d="M453 1903l-195 295h277l110 -295h-192zM610 1806h230v-241h-230v241zM264 1806h223v-241h-223v241zM379 1462v-1020q1 -123 27 -168.5t60 -65.5t86 -20t85 20q86 51 86 234v1020h295v-1020q0 -258 -144 -374q-110 -89 -324 -90t-323 82q-143 108 -143 382v1020h295z" />
    <glyph glyph-name="udieresisgrave" unicode="&#x1dc;" horiz-adv-x="1024" 
d="M432 1548l-194 295h276l111 -295h-193zM571 1456h230v-242h-230v242zM225 1456h224v-242h-224v242zM94 285v817h283v-760q0 -86 29 -120t92 -34q150 0 149 183v731h283v-1102h-271v129h-4q-83 -152 -280 -152q-135 0 -208 71t-73 237z" />
    <glyph glyph-name="uni01DD" unicode="&#x1dd;" horiz-adv-x="948" 
d="M467 170q112 0 138 141q7 39 7 78v43h-288q4 -138 24 -182t48 -62t71 -18zM612 688q0 176 -73 235q-27 22 -66 21q-73 0 -105 -51t-44 -156h-254q8 193 102 293t297 100q276 0 367 -186q41 -84 50 -188t9 -212q0 -261 -77 -392q-100 -173 -361 -175q-336 0 -387 329
q-16 103 -17 231v63h559v88z" />
    <glyph glyph-name="Adieresismacron" unicode="&#x1de;" 
d="M868 2064v-155h-596v155h596zM629 1806h229v-241h-229v241zM283 1806h223v-241h-223v241zM713 551l-142 657h-4l-141 -657h287zM752 1462l387 -1462h-308l-67 309h-389l-68 -309h-307l387 1462h365z" />
    <glyph glyph-name="adieresismacron" unicode="&#x1df;" horiz-adv-x="985" 
d="M784 1733v-156h-596v156h596zM545 1485h229v-242h-229v242zM199 1485h223v-242h-223v242zM434 164q70 0 116 39q58 45 58 131v217q-49 -39 -128 -56q-152 -33 -152 -182t106 -149zM338 -23q-154 0 -216 90t-64 194q-2 176 63 253t215 117l160 43q63 16 88 45q24 29 24 88
q-1 131 -131 131q-67 0 -99 -39t-32 -104v-31h-254v27q0 177 114 265q96 74 248 74t230 -24t121 -70q72 -75 74 -243v-580q0 -130 34 -213h-270q-14 26 -35 115h-4q-50 -86 -114 -112t-152 -26z" />
    <glyph glyph-name="Adotmacron" unicode="&#x1e0;" 
d="M868 2064v-155h-596v155h596zM684 1806v-241h-229v241h229zM713 551l-142 657h-4l-141 -657h287zM752 1462l387 -1462h-308l-67 309h-389l-68 -309h-307l387 1462h365z" />
    <glyph glyph-name="adotmacron" unicode="&#x1e1;" horiz-adv-x="985" 
d="M784 1733v-156h-596v156h596zM600 1485v-242h-229v242h229zM434 164q70 0 116 39q58 45 58 131v217q-49 -39 -128 -56q-152 -33 -152 -182t106 -149zM338 -23q-154 0 -216 90t-64 194q-2 176 63 253t215 117l160 43q63 16 88 45q24 29 24 88q-1 131 -131 131
q-67 0 -99 -39t-32 -104v-31h-254v27q0 177 114 265q96 74 248 74t230 -24t121 -70q72 -75 74 -243v-580q0 -130 34 -213h-270q-14 26 -35 115h-4q-50 -86 -114 -112t-152 -26z" />
    <glyph glyph-name="AEmacron" unicode="&#x1e2;" horiz-adv-x="1554" 
d="M1274 1749v-156h-596v156h596zM725 551v682h-18l-228 -682h246zM1489 1462v-241h-481v-344h450v-242h-450v-393h501v-242h-784v309h-326l-102 -309h-301l545 1462h948z" />
    <glyph glyph-name="aemacron" unicode="&#x1e3;" horiz-adv-x="1478" 
d="M1038 1399v-156h-596v156h596zM344 795v-31h-254v27q0 177 114 265q96 74 273 74q111 0 175 -28t110 -103q66 131 278 131t306 -152q77 -125 77 -407v-63h-555v-88q0 -173 73 -235q26 -22 65 -21q70 0 102 51t45 156h254q-8 -193 -103 -293t-294 -101q-262 0 -332 185
q-64 -118 -139 -150t-216 -33.5t-203 88.5t-64 194q-2 176 63 253t215 117l160 43q63 16 88 45q24 29 24 88q-1 131 -131 131q-67 0 -99 -39t-32 -104zM1012 938q-138 0 -144 -219v-43h285q-4 130 -30 196t-111 66zM438 164q64 0 116 42t52 128v217q-49 -39 -128 -56
q-154 -33 -153 -182t113 -149z" />
    <glyph glyph-name="Gcaron" unicode="&#x1e6;" 
d="M266 1888h211l94 -174l99 174h204l-159 -295h-295zM752 1028q0 93 -30 146q-56 100 -138 100q-106 0 -154 -119t-48 -401t30 -384t70 -142t104 -40t123 63t59 171v149h-195v217h478v-788h-217v135h-5q-53 -86 -128 -122.5t-195 -36.5t-204 48q-163 91 -198 389
q-16 143 -16 331q0 386 110 566t367 180.5t363 -119.5t106 -343h-282z" />
    <glyph glyph-name="gcaron" unicode="&#x1e7;" horiz-adv-x="1024" 
d="M193 1528h210l95 -174l98 174h205l-160 -295h-295zM354 604q0 -145 5 -196q18 -179 137 -179q153 0 153 316q0 201 -32 285t-115 83q-48 0 -76 -20t-50 -82t-22 -207zM920 1102v-1047q0 -213 -106 -319t-353 -107q-180 0 -278 77q-97 77 -97 218h270q0 -77 87 -106
q24 -8 51 -8q155 0 155 192v145h-4q-43 -61 -105 -98t-130 -37q-168 0 -253 128t-85 402t58 405q81 183 288 183q59 0 123 -32q63 -33 104 -119h4v123h271z" />
    <glyph glyph-name="Kcaron" unicode="&#x1e8;" horiz-adv-x="1099" 
d="M317 1860h211l95 -174l98 174h205l-160 -295h-295zM397 1462v-585h4l373 585h320l-398 -626l443 -836h-332l-301 600l-109 -166v-434h-295v1462h295z" />
    <glyph glyph-name="kcaron" unicode="&#x1e9;" horiz-adv-x="1024" 
d="M266 1860h211l94 -174l99 174h204l-159 -295h-295zM387 1462v-772h4l285 412h311l-317 -434l364 -668h-311l-236 453l-100 -131v-322h-283v1462h283z" />
    <glyph glyph-name="Oogonek" unicode="&#x1ea;" 
d="M570 188q126 0 166 124q36 106 36 418t-29 398t-69 116t-105 30t-105 -30q-77 -59 -90 -263q-6 -103 -6 -332t28 -315t68 -116t106 -30zM332 -276q0 168 195 254q-271 12 -372 206q-51 100 -67 240t-16 306t15 307q31 289 218 398q98 56 264 56q305 0 415 -213
q52 -100 77 -319t-9 -535q-41 -384 -351 -436q-154 -100 -181 -179q-8 -23 -8 -53t20 -54t69 -24t112 33l39 -117q-83 -44 -224 -47q-102 0 -149 50t-47 127z" />
    <glyph glyph-name="oogonek" unicode="&#x1eb;" horiz-adv-x="983" 
d="M492 164q86 0 118 90t33 297q0 207 -33 297t-123 90t-123 -109q-24 -82 -24 -281.5t20 -263.5t50 -92t82 -28zM283 -272q0 164 184 249q-226 2 -318 138t-92 433t101 440t334 142q244 4 338 -136t95 -438q2 -473 -256 -553q-169 -105 -198 -190q-8 -23 -8 -53
q-1 -30 19 -54t70 -24t112 33l38 -116q-85 -45 -223 -48q-102 0 -149 50t-47 127z" />
    <glyph glyph-name="Oogonekmacron" unicode="&#x1ec;" 
d="M868 1749v-156h-596v156h596zM570 188q126 0 166 124q36 106 36 418t-29 398t-69 116t-105 30t-105 -30q-77 -59 -90 -263q-6 -103 -6 -332t28 -315t68 -116t106 -30zM541 -252q0 -82 91 -82q51 0 109 33l39 -117q-88 -47 -223 -47q-192 0 -197 176q0 91 60 159t164 108
q-7 0 -15 -1q-166 -1 -264 53q-185 101 -218 394q-15 139 -15 306t15 307q31 289 218 398q98 56 264 56q305 0 415 -213q52 -100 77 -319t-9 -535q-41 -384 -350 -436h48q-209 -130 -209 -240z" />
    <glyph glyph-name="oogonekmacron" unicode="&#x1ed;" horiz-adv-x="983" 
d="M791 1401v-156h-596v156h596zM492 164q86 0 118 90t33 297q0 207 -33 297t-123 90t-123 -109q-24 -82 -24 -281.5t20 -263.5t50 -92t82 -28zM448.5 -467q-165.5 0 -165.5 176q0 184 229 269q-10 0 -20 -1q-247 -3 -341 135t-94 436t101 440.5t334 141.5q244 4 338 -136
t95 -438t-96 -436q-77 -111 -229 -134h72q-209 -130 -209 -240q0 -82 90 -82q50 0 111 33l38 -117q-88 -47 -253.5 -47z" />
    <glyph glyph-name="jcaron" unicode="&#x1f0;" horiz-adv-x="491" 
d="M-66 1505h211l95 -174l98 174h205l-160 -295h-295zM0 -150q70 0 87 42t17 128v1082h283v-1172q0 -70 -15 -123q-46 -161 -286 -161q-72 0 -131 4v205q12 -4 22 -5h23z" />
    <glyph glyph-name="DZ" unicode="&#x1f1;" horiz-adv-x="2160" 
d="M1262 1221v241h841v-223l-547 -997h555v-242h-886v215l538 1006h-501zM412 217h131q78 0 125 27q94 54 111 250q9 100 9 237t-8 231q-16 190 -109 251q-50 32 -134 32h-125v-1028zM117 1462h483q286 0 394 -193q89 -159 89 -538t-108 -555t-393 -176h-465v1462z" />
    <glyph glyph-name="Dz" unicode="&#x1f2;" horiz-adv-x="2048" 
d="M1245 872v230h754v-217l-440 -656h440v-229h-774v217l440 655h-420zM412 217h131q78 0 125 27q94 54 111 250q9 100 9 237t-8 231q-16 190 -109 251q-50 32 -134 32h-125v-1028zM117 1462h483q286 0 394 -193q89 -159 89 -538t-108 -555t-393 -176h-465v1462z" />
    <glyph glyph-name="dz" unicode="&#x1f3;" horiz-adv-x="1896" 
d="M1094 872v230h753v-217l-440 -656h440v-229h-774v217l440 655h-419zM659 117h-4q-47 -78 -105 -109t-144 -31q-174 -1 -256 133t-82 441t82 443t243 136t250 -131h4v463h283v-1462h-271v117zM350 551.5q0 -179.5 28 -271.5t121 -92t121 92t28 272t-28 270q-28 91 -121 91
t-121 -91t-28 -270.5z" />
    <glyph glyph-name="Gacute" unicode="&#x1f4;" 
d="M600 1888h283l-201 -295h-193zM752 1028q0 93 -30 146q-56 100 -138 100q-106 0 -154 -119t-48 -401t30 -384t70 -142t104 -40t123 63t59 171v149h-195v217h478v-788h-217v135h-5q-53 -86 -128 -122.5t-195 -36.5t-204 48q-163 91 -198 389q-16 143 -16 331
q0 386 110 566t367 180.5t363 -119.5t106 -343h-282z" />
    <glyph glyph-name="gacute" unicode="&#x1f5;" horiz-adv-x="1024" 
d="M410 1528h282l-200 -295h-193zM354 604q0 -145 5 -196q18 -179 137 -179q153 0 153 316q0 201 -32 285t-115 83q-48 0 -76 -20t-50 -82t-22 -207zM920 1102v-1047q0 -213 -106 -319t-353 -107q-180 0 -278 77q-97 77 -97 218h270q0 -77 87 -106q24 -8 51 -8
q155 0 155 192v145h-4q-43 -61 -105 -98t-130 -37q-168 0 -253 128t-85 402t58 405q81 183 288 183q59 0 123 -32q63 -33 104 -119h4v123h271z" />
    <glyph glyph-name="Ngrave" unicode="&#x1f8;" horiz-adv-x="1175" 
d="M537 1565l-195 295h276l111 -295h-192zM803 461v1001h270v-1462h-336l-360 1024h-4v-1024h-271v1462h340l357 -1001h4z" />
    <glyph glyph-name="ngrave" unicode="&#x1f9;" horiz-adv-x="1024" 
d="M473 1233l-194 295h276l111 -295h-193zM930 817v-817h-283v760q0 86 -29 120t-92 33q-150 0 -149 -182v-731h-283v1102h271v-129h4q87 159 280 157q281 0 281 -313z" />
    <glyph glyph-name="Aringacute" unicode="&#x1fa;" 
d="M571 2429h283l-201 -295h-192zM567 1679q49 0 84 35t35 84t-35 84t-84 35t-83 -35t-34 -84t34 -84t83 -35zM340 1798q0 104 65 168t161 66q96 0 165 -68t69 -165t-68 -165t-165 -68t-162 64t-65 168zM713 551l-142 657h-4l-141 -657h287zM752 1462l387 -1462h-308
l-67 309h-389l-68 -309h-307l387 1462h365z" />
    <glyph glyph-name="aringacute" unicode="&#x1fb;" horiz-adv-x="985" 
d="M451 2103h282l-201 -295h-192zM483 1348q49 0 84 34t35 84t-35 84.5t-84 34.5t-83 -35t-34 -84q0 -50 34 -84t83 -34zM256 1466q0 157 136 215q93 40 181 2q87 -39 126 -129t1 -177t-126 -126q-42 -18 -91 -18q-98 -1 -163 65q-64 66 -64 168zM434 164q70 0 116 39
q58 45 58 131v217q-49 -39 -128 -56q-152 -33 -152 -182t106 -149zM338 -23q-154 0 -216 90t-64 194q-2 176 63 253t215 117l160 43q63 16 88 45q24 29 24 88q-1 131 -131 131q-67 0 -99 -39t-32 -104v-31h-254v27q0 177 114 265q96 74 248 74t230 -24t121 -70
q72 -75 74 -243v-580q0 -130 34 -213h-270q-14 26 -35 115h-4q-50 -86 -114 -112t-152 -26z" />
    <glyph glyph-name="AEacute" unicode="&#x1fc;" horiz-adv-x="1554" 
d="M963 1860h282l-201 -295h-192zM725 551v682h-18l-228 -682h246zM1489 1462v-241h-481v-344h450v-242h-450v-393h501v-242h-784v309h-326l-102 -309h-301l545 1462h948z" />
    <glyph glyph-name="aeacute" unicode="&#x1fd;" horiz-adv-x="1478" 
d="M739 1534h283l-201 -295h-192zM344 795v-31h-254v27q0 177 114 265q96 74 273 74q111 0 175 -28t110 -103q66 131 278 131t306 -152q77 -125 77 -407v-63h-555v-88q0 -173 73 -235q26 -22 65 -21q70 0 102 51t45 156h254q-8 -193 -103 -293t-294 -101q-262 0 -332 185
q-64 -118 -139 -150t-216 -33.5t-203 88.5t-64 194q-2 176 63 253t215 117l160 43q63 16 88 45q24 29 24 88q-1 131 -131 131q-67 0 -99 -39t-32 -104zM1012 938q-138 0 -144 -219v-43h285q-4 130 -30 196t-111 66zM438 164q64 0 116 42t52 128v217q-49 -39 -128 -56
q-154 -33 -153 -182t113 -149z" />
    <glyph glyph-name="Oslashacute" unicode="&#x1fe;" 
d="M569 1964h283l-201 -295h-192zM72 694q0 203 15 343q31 289 218 398q98 56 256 56t256 -49l53 125l99 -43l-62 -144q98 -90 129 -252t31 -364q1 -202 -15 -340q-16 -140 -68 -240t-150 -153t-256 -53t-256 42l-54 -118l-98 43l61 137q-51 47 -83 114t-54 181t-22 317z
M772 682q0 264 -12 352h-4l-330 -770q39 -76 143 -76q126 0 167 124q36 106 36 370zM569 1274q-66 0 -105 -30q-76 -58 -90 -263q-6 -102 -6 -285t11 -268h4l330 772q-45 74 -144 74z" />
    <glyph glyph-name="oslashacute" unicode="&#x1ff;" horiz-adv-x="983" 
d="M500 1634h282l-200 -295h-193zM926 580q0 -324 -98 -464t-336 -139q-143 -4 -224 37l-69 -127l-90 47l75 138q-129 126 -128 450t102 466t334 142q137 2 223 -43l69 134l90 -47l-75 -144q127 -126 127 -450zM497 164q81 0 113 90t33 242q0 152 -4 223h-4l-254 -488
q35 -67 116 -67zM340 461q0 -42 4 -80h4l252 487q-33 70 -108 70q-96 0 -128 -109q-24 -82 -24 -278v-90z" />
    <glyph glyph-name="Adblgrave" unicode="&#x200;" 
d="M485 1860l111 -295h-190l-201 295h280zM825 1860l107 -295h-189l-200 295h282zM713 551l-142 657h-4l-141 -657h287zM752 1462l387 -1462h-308l-67 309h-389l-68 -309h-307l387 1462h365z" />
    <glyph glyph-name="adblgrave" unicode="&#x201;" horiz-adv-x="985" 
d="M401 1528l111 -295h-190l-201 295h280zM741 1528l107 -295h-189l-200 295h282zM434 164q70 0 116 39q58 45 58 131v217q-49 -39 -128 -56q-152 -33 -152 -182t106 -149zM338 -23q-154 0 -216 90t-64 194q-2 176 63 253t215 117l160 43q63 16 88 45q24 29 24 88
q-1 131 -131 131q-67 0 -99 -39t-32 -104v-31h-254v27q0 177 114 265q96 74 248 74t230 -24t121 -70q72 -75 74 -243v-580q0 -130 34 -213h-270q-14 26 -35 115h-4q-50 -86 -114 -112t-152 -26z" />
    <glyph glyph-name="Ainvertedbreve" unicode="&#x202;" 
d="M287 1565q0 104 57 185q74 105 224 104t224 -104q58 -80 58 -185h-131q-7 59 -49 96t-102 37t-103 -37t-49 -96h-129zM713 551l-142 657h-4l-141 -657h287zM752 1462l387 -1462h-308l-67 309h-389l-68 -309h-307l387 1462h365z" />
    <glyph glyph-name="ainvertedbreve" unicode="&#x203;" horiz-adv-x="985" 
d="M203 1237q0 104 57 185q73 104 223 104t225 -104q58 -80 58 -185h-131q-7 59 -49 96t-102 37t-103 -37t-49 -96h-129zM434 164q70 0 116 39q58 45 58 131v217q-49 -39 -128 -56q-152 -33 -152 -182t106 -149zM338 -23q-154 0 -216 90t-64 194q-2 176 63 253t215 117
l160 43q63 16 88 45q24 29 24 88q-1 131 -131 131q-67 0 -99 -39t-32 -104v-31h-254v27q0 177 114 265q96 74 248 74t230 -24t121 -70q72 -75 74 -243v-580q0 -130 34 -213h-270q-14 26 -35 115h-4q-50 -86 -114 -112t-152 -26z" />
    <glyph glyph-name="Edblgrave" unicode="&#x204;" horiz-adv-x="985" 
d="M436 1860l111 -295h-191l-200 295h280zM776 1860l107 -295h-189l-200 295h282zM920 1462v-241h-523v-344h492v-242h-492v-393h543v-242h-838v1462h818z" />
    <glyph glyph-name="edblgrave" unicode="&#x205;" horiz-adv-x="948" 
d="M389 1528l111 -295h-191l-200 295h280zM729 1528l107 -295h-189l-201 295h283zM481 938q-108 0 -138 -141q-7 -39 -7 -78v-43h289q-5 134 -25 180t-48 64t-71 18zM336 508v-88q0 -175 74 -235q27 -22 65 -21q72 0 105 51t45 156h254q-9 -193 -103 -293t-297 -101
q-275 0 -366 187q-41 84 -51 188q-9 104 -9 212q0 258 77 392q100 174 347 174t340 -152q78 -127 78 -407v-63h-559z" />
    <glyph glyph-name="Einvertedbreve" unicode="&#x206;" horiz-adv-x="985" 
d="M238 1565q0 104 57 185q74 105 223 104t224 -104q56 -78 59 -185h-131q-6 59 -49 96t-103 37t-102 -37t-49 -96h-129zM920 1462v-241h-523v-344h492v-242h-492v-393h543v-242h-838v1462h818z" />
    <glyph glyph-name="einvertedbreve" unicode="&#x207;" horiz-adv-x="948" 
d="M190 1237q0 103 58 185q73 104 222 104t225 -104q56 -78 59 -185h-131q-5 59 -49 96t-103 37t-103 -37t-49 -96h-129zM481 938q-108 0 -138 -141q-7 -39 -7 -78v-43h289q-5 134 -25 180t-48 64t-71 18zM336 508v-88q0 -175 74 -235q27 -22 65 -21q72 0 105 51t45 156h254
q-9 -193 -103 -293t-297 -101q-275 0 -366 187q-41 84 -51 188q-9 104 -9 212q0 258 77 392q100 174 347 174t340 -152q78 -127 78 -407v-63h-559z" />
    <glyph glyph-name="Idblgrave" unicode="&#x208;" horiz-adv-x="528" 
d="M180 1860l111 -295h-191l-200 295h280zM520 1860l107 -295h-189l-200 295h282zM117 0v1462h295v-1462h-295z" />
    <glyph glyph-name="idblgrave" unicode="&#x209;" horiz-adv-x="491" 
d="M162 1505l110 -295h-190l-201 295h281zM502 1505l106 -295h-188l-201 295h283zM104 1102h283v-1102h-283v1102z" />
    <glyph glyph-name="Iinvertedbreve" unicode="&#x20a;" horiz-adv-x="528" 
d="M-18 1565q0 104 57 185q74 105 223 104t224 -104q56 -78 59 -185h-131q-6 59 -49 96t-103 37t-102 -37t-49 -96h-129zM117 0v1462h295v-1462h-295z" />
    <glyph glyph-name="iinvertedbreve" unicode="&#x20b;" horiz-adv-x="491" 
d="M-37 1210q0 105 57 186q73 103 222 103t226 -103q58 -80 58 -186h-131q-6 58 -49 96t-102 38t-103 -37q-43 -38 -49 -97h-129zM104 1102h283v-1102h-283v1102z" />
    <glyph glyph-name="Odblgrave" unicode="&#x20c;" 
d="M485 1888l111 -295h-190l-201 295h280zM825 1888l107 -295h-189l-200 295h282zM570 188q126 0 166 124q36 106 36 418t-29 398t-69 116t-105 30t-105 -30q-77 -59 -90 -263q-6 -103 -6 -332t28 -315t68 -116t106 -30zM72 730q0 166 15 307q31 289 218 398q98 56 264 56
q305 0 415 -213q52 -100 77 -319t-9 -524t-175 -381t-307 -76t-265 53q-185 101 -217 393q-16 140 -16 306z" />
    <glyph glyph-name="odblgrave" unicode="&#x20d;" horiz-adv-x="983" 
d="M408 1530l110 -295h-190l-201 295h281zM748 1530l106 -295h-188l-201 295h283zM492 164q86 0 118 90t33 297q0 207 -33 297t-123 90t-123 -109q-24 -82 -24 -281.5t20 -263.5t50 -92t82 -28zM57 548q0 297 101 440t334 142q244 4 338 -136t95 -438t-97 -438.5
t-340 -142.5t-336.5 137t-94.5 436z" />
    <glyph glyph-name="Oinvertedbreve" unicode="&#x20e;" 
d="M287 1593q0 103 65 196t214 93t226 -103q58 -80 58 -186h-131q-7 59 -49 97t-102 37t-103 -38t-49 -96h-129zM570 188q126 0 166 124q36 106 36 418t-29 398t-69 116t-105 30t-105 -30q-77 -59 -90 -263q-6 -103 -6 -332t28 -315t68 -116t106 -30zM72 730q0 166 15 307
q31 289 218 398q98 56 264 56q305 0 415 -213q52 -100 77 -319t-9 -524t-175 -381t-307 -76t-265 53q-185 101 -217 393q-16 140 -16 306z" />
    <glyph glyph-name="oinvertedbreve" unicode="&#x20f;" horiz-adv-x="983" 
d="M209 1237q0 104 57 185q73 104 223 104t225 -104q58 -80 58 -185h-131q-7 59 -49 96t-102 37t-103 -37t-49 -96h-129zM492 164q86 0 118 90t33 297q0 207 -33 297t-123 90t-123 -109q-24 -82 -24 -281.5t20 -263.5t50 -92t82 -28zM57 548q0 297 101 440t334 142
q244 4 338 -136t95 -438t-97 -438.5t-340 -142.5t-336.5 137t-94.5 436z" />
    <glyph glyph-name="Rdblgrave" unicode="&#x210;" 
d="M514 1860l111 -295h-191l-201 295h281zM854 1860l107 -295h-189l-201 295h283zM1036 1085q0 -308 -243 -360v-4q111 -16 167 -77t64 -262q2 -48 5 -136t13 -150t52 -84v-12h-320q-32 43 -37 154l-8 280q-4 86 -43 135t-131 49h-158v-618h-295v1462h545q185 0 287 -93
t102 -284zM397 823h123q106 0 164 50q57 50 57 169q0 203 -204 203h-140v-422z" />
    <glyph glyph-name="rdblgrave" unicode="&#x211;" horiz-adv-x="681" 
d="M299 1528l111 -295h-191l-201 295h281zM639 1528l106 -295h-188l-201 295h283zM588 860q-142 0 -193 -105q-18 -38 -18 -93v-662h-283v1102h271v-148h4q95 176 254 176q25 0 51 -4v-270q-47 4 -86 4z" />
    <glyph glyph-name="Rinvertedbreve" unicode="&#x212;" 
d="M315 1565q0 103 58 185q74 105 223 104t224 -104q56 -78 59 -185h-131q-6 59 -50 96t-102 37t-102 -37t-50 -96h-129zM1036 1085q0 -308 -243 -360v-4q111 -16 167 -77t64 -262q2 -48 5 -136t13 -150t52 -84v-12h-320q-32 43 -37 154l-8 280q-4 86 -43 135t-131 49h-158
v-618h-295v1462h545q185 0 287 -93t102 -284zM397 823h123q106 0 164 50q57 50 57 169q0 203 -204 203h-140v-422z" />
    <glyph glyph-name="rinvertedbreve" unicode="&#x213;" horiz-adv-x="681" 
d="M100 1237q0 103 58 185q73 104 222 104t225 -104q56 -78 59 -185h-132q-6 59 -49 96t-102 37t-103 -37t-49 -96h-129zM588 860q-142 0 -193 -105q-18 -38 -18 -93v-662h-283v1102h271v-148h4q95 176 254 176q25 0 51 -4v-270q-47 4 -86 4z" />
    <glyph glyph-name="Udblgrave" unicode="&#x214;" horiz-adv-x="1101" 
d="M467 1860l111 -295h-191l-201 295h281zM807 1860l106 -295h-188l-201 295h283zM379 1462v-1020q1 -123 27 -168.5t60 -65.5t86 -20t85 20q86 51 86 234v1020h295v-1020q0 -258 -144 -374q-110 -89 -324 -90t-323 82q-143 108 -143 382v1020h295z" />
    <glyph glyph-name="udblgrave" unicode="&#x215;" horiz-adv-x="1024" 
d="M428 1505l111 -295h-191l-201 295h281zM768 1505l106 -295h-188l-201 295h283zM94 285v817h283v-760q0 -86 29 -120t92 -34q150 0 149 183v731h283v-1102h-271v129h-4q-83 -152 -280 -152q-135 0 -208 71t-73 237z" />
    <glyph glyph-name="Uinvertedbreve" unicode="&#x216;" horiz-adv-x="1101" 
d="M268 1565q0 103 58 185q74 105 223 104t224 -104q58 -80 58 -185h-131q-6 59 -49 96t-102 37t-103 -37t-49 -96h-129zM379 1462v-1020q1 -123 27 -168.5t60 -65.5t86 -20t85 20q86 51 86 234v1020h295v-1020q0 -258 -144 -374q-110 -89 -324 -90t-323 82
q-143 108 -143 382v1020h295z" />
    <glyph glyph-name="uinvertedbreve" unicode="&#x217;" horiz-adv-x="1024" 
d="M229 1210q0 104 58 186q73 103 221 103t226 -103q56 -78 59 -186h-131q-6 58 -50 96t-102 38t-102 -38t-50 -96h-129zM94 285v817h283v-760q0 -86 29 -120t92 -34q150 0 149 183v731h283v-1102h-271v129h-4q-83 -152 -280 -152q-135 0 -208 71t-73 237z" />
    <glyph glyph-name="Scommaaccent" unicode="&#x218;" horiz-adv-x="1062" 
d="M639 -332q0 -144 -47 -221t-170 -92v115q42 8 64 46t22 85v24h-86v256h217v-213zM1018 420q0 -442 -379 -442t-487 108t-107 311v60h295v-43q0 -116 43 -170t152 -56q67 0 121 44t54 139t-56 147t-179.5 92.5t-195.5 79.5t-120 91q-95 103 -93 280q0 217 120 323
q121 106 330 106t332 -96t123 -296v-41h-283q0 105 -37 161t-123 56q-136 0 -160 -106t21 -178q29 -46 123 -85l227 -98q232 -102 267 -264q12 -55 12 -123z" />
    <glyph glyph-name="scommaaccent" unicode="&#x219;" horiz-adv-x="909" 
d="M563 -332q0 -144 -47 -221t-170 -92v115q43 8 65 46t21 85v24h-86v256h217v-213zM301 360v-36q0 -72 38 -116t107 -44q146 0 146 131q0 53 -31 81t-72 44l-198 72q-234 82 -235 308t219 304q77 27 186 26q193 0 285 -82t92 -231v-45h-254q0 86 -28 126t-89 40t-101 -30
t-40 -80t26 -83t97 -55l169 -57q132 -45 188 -118t56 -179q0 -354 -409 -359q-331 0 -387 200q-18 65 -19 145v38h254z" />
    <glyph glyph-name="Tcommaaccent" unicode="&#x21a;" horiz-adv-x="983" 
d="M600 -309q0 -143 -47 -221t-170 -93v115q43 8 65 46t21 85v25h-86v256h217v-213zM958 1462v-241h-319v-1221h-295v1221h-319v241h933z" />
    <glyph glyph-name="tcommaaccent" unicode="&#x21b;" horiz-adv-x="606" 
d="M416 -315q0 -143 -47 -221t-170 -93v115q43 8 65 46t21 85v25h-86v256h217v-213zM156 279v630h-144v193h144v315h282v-315h164v-193h-164v-596q0 -66 23 -99t141 -17v-197l-184 -6q-82 0 -134 11t-80 45q-48 58 -48 229z" />
    <glyph glyph-name="Hcaron" unicode="&#x21e;" 
d="M266 1860h211l94 -174l99 174h204l-159 -295h-295zM102 1462h295v-559h344v559h295v-1462h-295v649h-344v-649h-295v1462z" />
    <glyph glyph-name="hcaron" unicode="&#x21f;" horiz-adv-x="1024" 
d="M209 1860h211l94 -174l98 174h205l-160 -295h-295zM94 1462h283v-473h4q82 141 268 141q281 0 281 -313v-817h-283v760q0 86 -29 120t-92 33q-150 0 -149 -182v-731h-283v1462z" />
    <glyph glyph-name="Adotaccent" unicode="&#x226;" 
d="M684 1806v-241h-229v241h229zM713 551l-142 657h-4l-141 -657h287zM752 1462l387 -1462h-308l-67 309h-389l-68 -309h-307l387 1462h365z" />
    <glyph glyph-name="adotaccent" unicode="&#x227;" horiz-adv-x="985" 
d="M600 1485v-242h-229v242h229zM434 164q70 0 116 39q58 45 58 131v217q-49 -39 -128 -56q-152 -33 -152 -182t106 -149zM338 -23q-154 0 -216 90t-64 194q-2 176 63 253t215 117l160 43q63 16 88 45q24 29 24 88q-1 131 -131 131q-67 0 -99 -39t-32 -104v-31h-254v27
q0 177 114 265q96 74 248 74t230 -24t121 -70q72 -75 74 -243v-580q0 -130 34 -213h-270q-14 26 -35 115h-4q-50 -86 -114 -112t-152 -26z" />
    <glyph glyph-name="Ecedilla" unicode="&#x228;" horiz-adv-x="985" 
d="M483 -210.5q-39 -0.5 -71 -12.5l-45 41l112 182h-377v1462h818v-241h-523v-344h492v-242h-492v-393h543v-242h-350l-78 -119q45 10 90 10t82 -29q66 -52 68 -122q0 -92 -67 -142t-163 -50q-163 -1 -233 38l39 95q60 -31 122 -31t92 20t30 50t-25 50t-64 19.5z" />
    <glyph glyph-name="ecedilla" unicode="&#x229;" horiz-adv-x="948" 
d="M481 938q-108 0 -138 -141q-7 -39 -7 -78v-43h289q-5 134 -25 180t-48 64t-71 18zM53 564q0 258 77 392q100 174 347 174t340 -152q78 -127 78 -407v-63h-559v-88q0 -175 74 -235q27 -22 65 -21q72 0 105 51t45 156h254q-7 -193 -95 -285t-247 -106l-72 -111q45 10 71 10
q64 0 116 -41q52 -42 52 -122q1 -80 -66 -130t-199 -50t-197 38l39 94q58 -30 121 -30t93 20q29 20 29 50t-24 49q-25 19 -65 19t-70 -12l-46 41l108 174q-331 20 -365 373q-9 104 -9 212z" />
    <glyph glyph-name="Odieresismacron" unicode="&#x22a;" 
d="M868 2093v-156h-596v156h596zM629 1835h229v-242h-229v242zM283 1835h223v-242h-223v242zM570 188q126 0 166 124q36 106 36 418t-29 398t-69 116t-105 30t-105 -30q-77 -59 -90 -263q-6 -103 -6 -332t28 -315t68 -116t106 -30zM72 730q0 166 15 307q31 289 218 398
q98 56 264 56q305 0 415 -213q52 -100 77 -319t-9 -524t-175 -381t-307 -76t-265 53q-185 101 -217 393q-16 140 -16 306z" />
    <glyph glyph-name="odieresismacron" unicode="&#x22b;" horiz-adv-x="983" 
d="M791 1735v-156h-596v156h596zM551 1487h229v-242h-229v242zM205 1487h223v-242h-223v242zM492 164q86 0 118 90t33 297q0 207 -33 297t-123 90t-123 -109q-24 -82 -24 -281.5t20 -263.5t50 -92t82 -28zM57 548q0 297 101 440t334 142q244 4 338 -136t95 -438t-97 -438.5
t-340 -142.5t-336.5 137t-94.5 436z" />
    <glyph glyph-name="Otildemacron" unicode="&#x22c;" 
d="M868 2109v-155h-596v155h596zM684 1778q30 0 44 26t13 47h148q-9 -111 -61 -183t-130 -71q-52 0 -190 59q-29 11 -53 11q-49 0 -66 -74h-137q33 256 184 254q57 0 88 -14l99 -43q31 -12 61 -12zM570 188q126 0 166 124q36 106 36 418t-29 398t-69 116t-105 30t-105 -30
q-77 -59 -90 -263q-6 -103 -6 -332t28 -315t68 -116t106 -30zM72 730q0 166 15 307q31 289 218 398q98 56 264 56q305 0 415 -213q52 -100 77 -319t-9 -524t-175 -381t-307 -76t-265 53q-185 101 -217 393q-16 140 -16 306z" />
    <glyph glyph-name="otildemacron" unicode="&#x22d;" horiz-adv-x="983" 
d="M791 1751v-156h-596v156h596zM606 1430q30 0 44 26t14 47h147q-10 -111 -61 -183t-117 -72t-203 60q-29 11 -53 11q-49 0 -66 -74h-137q33 256 184 254q57 0 88 -14l99 -43q31 -12 61 -12zM492 164q86 0 118 90t33 297q0 207 -33 297t-123 90t-123 -109
q-24 -82 -24 -281.5t20 -263.5t50 -92t82 -28zM57 548q0 297 101 440t334 142q244 4 338 -136t95 -438t-97 -438.5t-340 -142.5t-336.5 137t-94.5 436z" />
    <glyph glyph-name="Odotaccent" unicode="&#x22e;" 
d="M684 1835v-242h-229v242h229zM570 188q126 0 166 124q36 106 36 418t-29 398t-69 116t-105 30t-105 -30q-77 -59 -90 -263q-6 -103 -6 -332t28 -315t68 -116t106 -30zM72 730q0 166 15 307q31 289 218 398q98 56 264 56q305 0 415 -213q52 -100 77 -319t-9 -524
t-175 -381t-307 -76t-265 53q-185 101 -217 393q-16 140 -16 306z" />
    <glyph glyph-name="odotaccent" unicode="&#x22f;" horiz-adv-x="983" 
d="M606 1487v-242h-229v242h229zM492 164q86 0 118 90t33 297q0 207 -33 297t-123 90t-123 -109q-24 -82 -24 -281.5t20 -263.5t50 -92t82 -28zM57 548q0 297 101 440t334 142q244 4 338 -136t95 -438t-97 -438.5t-340 -142.5t-336.5 137t-94.5 436z" />
    <glyph glyph-name="Odotaccentmacron" unicode="&#x230;" 
d="M868 2093v-156h-596v156h596zM684 1835v-242h-229v242h229zM570 188q126 0 166 124q36 106 36 418t-29 398t-69 116t-105 30t-105 -30q-77 -59 -90 -263q-6 -103 -6 -332t28 -315t68 -116t106 -30zM72 730q0 166 15 307q31 289 218 398q98 56 264 56q305 0 415 -213
q52 -100 77 -319t-9 -524t-175 -381t-307 -76t-265 53q-185 101 -217 393q-16 140 -16 306z" />
    <glyph glyph-name="odotaccentmacron" unicode="&#x231;" horiz-adv-x="983" 
d="M791 1735v-156h-596v156h596zM606 1487v-242h-229v242h229zM492 164q86 0 118 90t33 297q0 207 -33 297t-123 90t-123 -109q-24 -82 -24 -281.5t20 -263.5t50 -92t82 -28zM57 548q0 297 101 440t334 142q244 4 338 -136t95 -438t-97 -438.5t-340 -142.5t-336.5 137
t-94.5 436z" />
    <glyph glyph-name="Ymacron" unicode="&#x232;" horiz-adv-x="1064" 
d="M831 1720v-155h-595v155h595zM680 0h-295v575l-379 887h332l192 -565h5l204 565h320l-379 -887v-575z" />
    <glyph glyph-name="ymacron" unicode="&#x233;" horiz-adv-x="909" 
d="M754 1370v-156h-596v156h596zM209 -354h-115v211q36 -7 94 -7t92 41t39 109l-309 1102h295l164 -762h4l143 762h283l-266 -1028q-37 -137 -71 -222q-66 -165 -190 -192q-65 -14 -163 -14z" />
    <glyph glyph-name="uni0237" unicode="&#x237;" horiz-adv-x="491" 
d="M0 -150q70 0 87 42t17 128v1082h283v-1172q0 -70 -15 -123q-46 -161 -286 -161q-72 0 -131 4v205q12 -4 22 -5h23z" />
    <glyph glyph-name="uni0258" unicode="&#x258;" horiz-adv-x="948" 
d="M612 676v43q0 147 -74 200q-28 19 -71 19q-83 0 -111 -62t-32 -200h288zM612 508h-559v63q0 280 78 407q95 154 326 152q367 0 423 -356q15 -102 15 -210t-9 -212t-50 -188q-90 -185 -367 -187q-203 1 -297 101t-102 293h254q12 -103 45 -155t104 -52q139 0 139 256v88z
" />
    <glyph glyph-name="uni0259" unicode="&#x259;" horiz-adv-x="956" 
d="M57 602h559v88q0 176 -73 235q-27 22 -66 21q-73 0 -105 -51t-44 -156h-254q8 193 101 293t298 101q274 0 367 -188q41 -83 50 -187t9 -212q0 -261 -77 -392q-100 -174 -347 -174t-340 152q-76 123 -78 407v63zM471 172q112 0 138 141q7 39 7 78v43h-288q4 -138 24 -182
t48 -62t71 -18z" />
    <glyph glyph-name="uni026F" unicode="&#x26f;" horiz-adv-x="1552" 
d="M918 360q0 -143 110 -143q68 0 108 45t40 144v724h282v-1101h-270v112h-4q-98 -141 -279 -141q-98 0 -165 45t-89 131h-4q-66 -176 -278 -176q-275 0 -275 330v800h283v-770q0 -143 110 -143q68 0 108 45t40 144v724h283v-770z" />
    <glyph glyph-name="commaturnedmod" unicode="&#x2bb;" horiz-adv-x="532" 
d="M131 1071q0 185 53 269q67 107 217 122v-143q-53 -10 -79 -57t-27 -105v-33h106v-319h-270v266z" />
    <glyph glyph-name="afii57929" unicode="&#x2bc;" horiz-adv-x="532" 
d="M401 1196q0 -184 -53 -269q-67 -107 -217 -122v143q53 10 80 58t27 104v33h-107v319h270v-266z" />
    <glyph glyph-name="circumflex" unicode="&#x2c6;" horiz-adv-x="454" 
d="M80 1526h295l160 -295h-218l-94 174l-98 -174h-199z" />
    <glyph glyph-name="caron" unicode="&#x2c7;" horiz-adv-x="454" 
d="M-74 1526h211l94 -174l99 174h205l-160 -295h-295z" />
    <glyph glyph-name="breve" unicode="&#x2d8;" horiz-adv-x="454" 
d="M227.5 1393q59.5 0 102.5 36.5t49 96.5h133q0 -105 -68 -197t-218.5 -92t-213.5 92.5t-63 196.5h127q6 -59 49 -96t102.5 -37z" />
    <glyph glyph-name="dotaccent" unicode="&#x2d9;" horiz-adv-x="454" 
d="M342 1491v-242h-229v242h229z" />
    <glyph glyph-name="ring" unicode="&#x2da;" horiz-adv-x="454" 
d="M109 1429.5q0 -49.5 34.5 -84t83.5 -34.5t84 34.5t35 84t-35 84t-84 34.5t-83.5 -34.5t-34.5 -84zM0 1429.5q0 49.5 15.5 91.5t47 73.5t73.5 50t91 18.5t91 -18.5t74 -50t50.5 -73.5t18.5 -91.5t-18.5 -91.5t-50.5 -73.5t-74 -50t-91 -18.5t-91 18.5t-73.5 50t-47 73.5
t-15.5 91.5z" />
    <glyph glyph-name="ogonek" unicode="&#x2db;" horiz-adv-x="454" 
d="M215 -453q-166 0 -166 134.5t63.5 206t188.5 112.5h137q-209 -130 -209 -240q0 -35 20.5 -58.5t68.5 -23.5t112 33l39 -117q-88 -47 -254 -47z" />
    <glyph glyph-name="tilde" unicode="&#x2dc;" horiz-adv-x="454" 
d="M96 1503q57 0 88 -14l99 -43q31 -12 61 -12t43.5 26.5t13.5 46.5h148q-10 -111 -61.5 -182.5t-129.5 -71.5q-42 0 -130.5 35t-112.5 35q-49 0 -66 -74h-137q33 254 184 254z" />
    <glyph glyph-name="hungarumlaut" unicode="&#x2dd;" horiz-adv-x="454" 
d="M375 1526h282l-200 -295h-193zM35 1526h282l-200 -295h-187z" />
    <glyph glyph-name="uni02EE" unicode="&#x2ee;" horiz-adv-x="948" 
d="M539 1462h270v-266q0 -184 -53 -269q-67 -107 -217 -122v143q53 10 79 58t27 104v33h-106v319zM139 1462h271v-266q0 -182 -54 -269q-67 -107 -217 -122v143q53 10 80 58t27 104v33h-107v319z" />
    <glyph glyph-name="gravecmb" unicode="&#x300;" horiz-adv-x="0" 
d="M-281 1231l-196 295h278l111 -295h-193z" />
    <glyph glyph-name="acutecmb" unicode="&#x301;" horiz-adv-x="0" 
d="M-244 1526h281l-199 -295h-192z" />
    <glyph glyph-name="circumflexcmb" unicode="&#x302;" horiz-adv-x="0" 
d="M-369 1526h295l158 -295h-215l-94 174l-99 -174h-200z" />
    <glyph glyph-name="tildecmb" unicode="&#x303;" horiz-adv-x="0" 
d="M-105 1434q30 0 44 26.5t14 46.5h145q-10 -111 -60 -182.5t-128 -71.5q-46 0 -132.5 35t-111.5 35q-49 0 -65 -74h-140q33 254 187 254q57 0 88 -14l98 -43q31 -12 61 -12z" />
    <glyph glyph-name="macroncmb" unicode="&#x304;" horiz-adv-x="0" 
d="M78 1462v-155h-596v155h596z" />
    <glyph glyph-name="brevecmb" unicode="&#x306;" horiz-adv-x="0" 
d="M-221.5 1393q59.5 0 102.5 36.5t49 96.5h131q0 -106 -66.5 -197.5t-217 -91.5t-215 93t-64.5 196h129q6 -59 49 -96t102.5 -37z" />
    <glyph glyph-name="dotaccentcmb" unicode="&#x307;" horiz-adv-x="0" 
d="M-106 1491v-242h-230v242h230z" />
    <glyph glyph-name="dieresiscmb" unicode="&#x308;" horiz-adv-x="0" 
d="M-160 1491h228v-242h-228v242zM-508 1491h225v-242h-225v242z" />
    <glyph glyph-name="hookabovecomb" unicode="&#x309;" horiz-adv-x="0" 
d="M12 1326q0 -148 -108 -185q-31 -11 -54 -11t-75 11l-25 -99h-110l-11 162l45 41q32 -12 72 -12.5t64 19.5t24 50t-30 50t-95 20t-119 -31l-39 95q66 37 198 38q263 0 263 -148z" />
    <glyph glyph-name="ringcmb" unicode="&#x30a;" horiz-adv-x="0" 
d="M-340 1429.5q0 -49.5 35 -84t84 -34.5t84 34.5t35 84t-35 84t-84 34.5t-84 -34.5t-35 -84zM-451 1429.5q0 49.5 16.5 91.5t48.5 73.5t74 50t91 18.5t91 -18.5t73.5 -50t49 -73.5t17.5 -91.5t-17.5 -91.5t-49 -73.5t-73.5 -50t-91 -18.5t-91 18.5t-74 50t-48.5 73.5
t-16.5 91.5z" />
    <glyph glyph-name="hungarumlautcmb" unicode="&#x30b;" horiz-adv-x="0" 
d="M-74 1526h281l-201 -295h-190zM-414 1526h283l-201 -295h-188z" />
    <glyph glyph-name="caroncmb" unicode="&#x30c;" horiz-adv-x="0" 
d="M-524 1526h213l94 -174l98 174h203l-158 -295h-295z" />
    <glyph glyph-name="uni030F" unicode="&#x30f;" horiz-adv-x="0" 
d="M-240 1526l111 -295h-190l-201 295h280zM100 1526l107 -295h-189l-200 295h282z" />
    <glyph glyph-name="uni0311" unicode="&#x311;" horiz-adv-x="0" 
d="M-502 1237q0 103 58 185q73 104 222 104t225 -104q58 -80 58 -185h-131q-6 59 -49 96t-102 37t-103 -37t-49 -96h-129z" />
    <glyph glyph-name="uni0312" unicode="&#x312;" horiz-adv-x="0" 
d="M-109 1212q0 144 34 200t76 82t108 32v-115q-43 -8 -65 -46t-21 -83v-27h86v-256h-218v213z" />
    <glyph glyph-name="uni0313" unicode="&#x313;" horiz-adv-x="0" 
d="M109 1313q0 -142 -34 -199t-76 -82t-108 -33v115q43 8 65 46t21 85v25h-86v256h218v-213z" />
    <glyph glyph-name="uni0314" unicode="&#x314;" horiz-adv-x="0" 
d="M-109 1313v213h218v-256h-86v-25q-1 -47 21 -85t65 -46v-115q-183 22 -208 194q-10 54 -10 120z" />
    <glyph glyph-name="uni0316" unicode="&#x316;" horiz-adv-x="0" 
d="M-477 63h278l111 -294h-193z" />
    <glyph glyph-name="uni0317" unicode="&#x317;" horiz-adv-x="0" 
d="M37 63l-199 -294h-192l110 294h281z" />
    <glyph glyph-name="uni031B" unicode="&#x31b;" horiz-adv-x="0" 
d="M215 1202q53 0 69 67q15 67 15 193h201q0 -246 -55 -342t-218 -96q-184 0 -346 283l111 47l84 -82q34 -35 60 -52t77 -18h2z" />
    <glyph glyph-name="dotbelowcomb" unicode="&#x323;" horiz-adv-x="0" 
d="M-106 -213h-230v242h230v-242z" />
    <glyph glyph-name="uni0324" unicode="&#x324;" horiz-adv-x="0" 
d="M68 29v-242h-228v242h228zM-283 29v-242h-225v242h225z" />
    <glyph glyph-name="uni0325" unicode="&#x325;" horiz-adv-x="0" 
d="M-340 -33q0 -49 35 -84t84 -35t84 35t35 84t-35 84t-84 35t-84 -35t-35 -84zM10 -33q0 -99 -67 -166t-164 -67t-163 66t-66 166t66 166t162 68t164 -66t68 -167z" />
    <glyph glyph-name="uni0326" unicode="&#x326;" horiz-adv-x="0" 
d="M109 -150q0 -140 -47 -219t-171 -94v115q43 8 65 46t21 85v24h-86v256h218v-213z" />
    <glyph glyph-name="cedillacmb" unicode="&#x327;" horiz-adv-x="0" 
d="M12 -271q0 -81 -65.5 -131.5t-195.5 -50.5t-200 39l39 95q59 -31 122 -31t92.5 20t29.5 50t-25 49.5t-63 19.5t-72 -12l-45 41l113 182h111l-78 -119q45 10 89 10t96 -40.5t52 -121.5z" />
    <glyph glyph-name="ogonekcmb" unicode="&#x328;" horiz-adv-x="0" 
d="M-185 -453q-119 0 -166.5 49.5t-47.5 134.5t63.5 156.5t188.5 112.5h137q-172 -107 -190.5 -161t-18.5 -84t20.5 -53.5t68.5 -23.5t112 33l36 -117q-84 -47 -203 -47z" />
    <glyph glyph-name="uni032C" unicode="&#x32c;" horiz-adv-x="0" 
d="M-311 63l94 -174l98 174h203l-158 -294h-295l-155 294h213z" />
    <glyph glyph-name="uni032D" unicode="&#x32d;" horiz-adv-x="0" 
d="M-74 63l158 -294h-215l-94 174l-99 -174h-200l155 294h295z" />
    <glyph glyph-name="uni032E" unicode="&#x32e;" horiz-adv-x="0" 
d="M-222 -70q60 0 103 37t49 96h131q0 -105 -58 -185q-76 -105 -225 -104t-222 104q-55 79 -58 185h129q7 -59 49 -96t102 -37z" />
    <glyph glyph-name="uni032F" unicode="&#x32f;" horiz-adv-x="0" 
d="M-502 -225q0 103 58 185q74 105 223 104t224 -104q58 -80 58 -185h-131q-6 59 -49 96t-102 37t-103 -37t-49 -96h-129z" />
    <glyph glyph-name="uni0330" unicode="&#x330;" horiz-adv-x="0" 
d="M-47 45h145q-10 -111 -60 -183t-128 -71q-48 0 -132 34t-112 36q-49 0 -65 -74h-140q33 254 187 254q57 0 88 -14l98 -43q81 -32 105 14q14 27 14 47z" />
    <glyph glyph-name="uni0331" unicode="&#x331;" horiz-adv-x="0" 
d="M78 -156h-596v156h596v-156z" />
    <glyph glyph-name="soliduslongoverlaycmb" unicode="&#x338;" horiz-adv-x="0" 
d="M-217 1491h227l-461 -1514h-225z" />
    <glyph glyph-name="Omegagreek" unicode="&#x3a9;" horiz-adv-x="1572" 
d="M72 229h366v72q-175 48 -272 197t-94 338q0 285 196 463t483 178t481 -176t193 -461q0 -191 -93 -343t-273 -196v-72h366v-229h-581v424q145 27 221 138t77 277t-109 287t-283.5 121t-283.5 -122q-110 -121 -110 -285t73 -273t222 -143v-424h-579v229z" />
    <glyph glyph-name="pi" unicode="&#x3c0;" horiz-adv-x="1345" 
d="M1098 326q0 -23 2 -59t23 -52t55 -16t86 24v-192q-98 -47 -188 -47t-137 20q-124 54 -124 256v629h-307v-889h-283v889h-143v213h1178v-213h-162v-563z" />
    <glyph glyph-name="uni0400" unicode="&#x400;" horiz-adv-x="985" 
d="M102 1462h818v-241h-523v-344h492v-242h-492v-393h543v-242h-838v1462zM258 1843h277l110 -295h-192z" />
    <glyph glyph-name="afii10023" unicode="&#x401;" horiz-adv-x="985" 
d="M102 1462h818v-241h-523v-344h492v-242h-492v-393h543v-242h-838v1462zM791 1808v-241h-230v241h230zM438 1808v-241h-223v241h223z" />
    <glyph glyph-name="afii10051" unicode="&#x402;" horiz-adv-x="1331" 
d="M762 199q66 0 106 10t64 41q39 52 39 202t-31 210t-115 60t-123 -28q-69 -52 -76 -173q-3 -54 -3 -103v-418h-293v1221h-305v241h983v-241h-385v-443q32 62 107 106t190 46q168 0 259 -117t91 -328q0 -141 -20 -237q-41 -192 -221 -244q-93 -27 -238 -27h-29v222z" />
    <glyph glyph-name="afii10052" unicode="&#x403;" horiz-adv-x="909" 
d="M111 1462h780v-241h-485v-1221h-295v1462zM733 1843l-201 -295h-192l111 295h282z" />
    <glyph glyph-name="afii10053" unicode="&#x404;" horiz-adv-x="1099" 
d="M538 -23q-413 0 -454 472q-12 135 -12 276t11 279q24 300 207 420q100 67 250 67t236 -32t140 -92q102 -113 106 -357h-287q-4 140 -44 204t-136 64t-138 -100t-48 -310h329v-237h-331q3 -247 33 -318t68 -100t97 -29q94 0 136 76t44 266h287q-2 -121 -23 -221
q-45 -210 -221 -287q-94 -41 -250 -41z" />
    <glyph glyph-name="afii10054" unicode="&#x405;" horiz-adv-x="1062" 
d="M1018 420q0 -443 -508 -443q-250 0 -358 109t-107 311v60h295v-43q0 -115 43 -170t152 -56q67 0 121 44t54 139t-56 147t-179.5 92.5t-195.5 79.5t-120 91q-95 103 -93 280q0 217 120 323q121 106 330 106t332 -96t123 -296v-41h-283q0 105 -37 161t-123 56
q-136 0 -160 -106t21 -178q29 -46 123 -85l227 -98q159 -71 219 -157t60 -230z" />
    <glyph glyph-name="afii10055" unicode="&#x406;" horiz-adv-x="528" 
d="M117 1462h295v-1462h-295v1462z" />
    <glyph glyph-name="afii10056" unicode="&#x407;" horiz-adv-x="528" 
d="M117 1462h295v-1462h-295v1462zM551 1808v-241h-229v241h229zM199 1808v-241h-224v241h224z" />
    <glyph glyph-name="afii10057" unicode="&#x408;" horiz-adv-x="948" 
d="M31 399v64h270v-45q-1 -118 25 -174t106 -56t106 56t25 174v1044h295v-1052q0 -233 -108 -333t-328 -100t-314 123q-77 100 -77 299z" />
    <glyph glyph-name="afii10058" unicode="&#x409;" horiz-adv-x="1759" 
d="M48 248q28 0 58 5q63 11 94 146q52 226 52 1063h833v-553h156q235 0 352 -105t117 -343q0 -361 -271 -436q-87 -25 -198 -25h-450v1221h-261q0 -524 -23 -721t-53 -285q-57 -168 -183 -208q-61 -19 -139 -19t-132 12v252q20 -4 48 -4zM1167 223q133 0 188 50
q54 50 54 186q0 187 -132 217q-44 10 -101 10h-91v-463h82z" />
    <glyph glyph-name="afii10059" unicode="&#x40a;" horiz-adv-x="1710" 
d="M102 1462h295v-559h344v559h295v-559h156q236 0 352 -103t117 -339q0 -361 -271 -436q-87 -25 -198 -25h-451v649h-344v-649h-295v1462zM1118 223q133 0 188 50q54 50 54 186q0 184 -132 212q-44 9 -102 9h-90v-457h82z" />
    <glyph glyph-name="afii10060" unicode="&#x40b;" horiz-adv-x="1323" 
d="M742 684q-50 0 -119 -12v-672h-293v1221h-305v241h983v-241h-385v-324q85 19 188 21q223 0 327 -96t103 -300v-522h-295v496q0 154 -119 180q-35 8 -85 8z" />
    <glyph glyph-name="afii10061" unicode="&#x40c;" horiz-adv-x="1099" 
d="M102 1462h295v-585h4l373 585h320l-398 -626l443 -836h-332l-301 600l-109 -166v-434h-295v1462zM848 1843l-201 -295h-192l110 295h283z" />
    <glyph glyph-name="uni040D" unicode="&#x40d;" horiz-adv-x="1161" 
d="M102 1462h281v-938l358 938h318v-1462h-281v936l-358 -936h-318v1462zM305 1843h277l110 -295h-192z" />
    <glyph glyph-name="afii10062" unicode="&#x40e;" horiz-adv-x="1064" 
d="M255 -8q-58 0 -116 8v223q43 -6 101 -6t90 37t61 104l15 33l-402 1071h328l215 -719l207 719h307l-350 -1052q-77 -239 -161 -328.5t-237 -89.5h-58zM547 1554q-133 0 -208 76t-79 211h135q8 -61 49 -96t102.5 -35t102.5 35t49 96h136q-4 -135 -79 -211t-208 -76z" />
    <glyph glyph-name="afii10145" unicode="&#x40f;" 
d="M434 0h-332v1462h295v-1220h344v1220h295v-1462h-329v-289h-273v289z" />
    <glyph glyph-name="afii10017" unicode="&#x410;" 
d="M387 1462h365l387 -1462h-308l-67 309h-389l-68 -309h-307zM713 551l-142 657h-4l-141 -657h287z" />
    <glyph glyph-name="afii10018" unicode="&#x411;" horiz-adv-x="1126" 
d="M102 1462h854v-241h-559v-322h181q231 0 349 -102t117 -338q0 -359 -282 -434q-90 -25 -207 -25h-453v1462zM502 225q129 0 185 50.5t56 180.5t-58 174t-175 44h-113v-449h105z" />
    <glyph glyph-name="afii10019" unicode="&#x412;" 
d="M596 1462q416 0 416 -370q0 -119 -56 -204t-165 -116v-4q123 -16 195 -104t71 -236q0 -296 -241 -393q-87 -35 -216 -35h-498v1462h494zM750 438q0 219 -226 219h-127v-440h115q106 0 172 47t66 174zM481 862q123 0 179 44t56 148t-50 148q-51 43 -162 43h-107v-383h84z
" />
    <glyph glyph-name="afii10020" unicode="&#x413;" horiz-adv-x="909" 
d="M111 1462h780v-241h-485v-1221h-295v1462z" />
    <glyph glyph-name="afii10021" unicode="&#x414;" horiz-adv-x="1267" 
d="M0 242h117q101 192 124 376t23 488v356h846v-1220h137v-531h-272v289h-703v-289h-272v531zM545 983q0 -477 -111 -741h387v979h-276v-238z" />
    <glyph glyph-name="afii10022" unicode="&#x415;" horiz-adv-x="985" 
d="M102 1462h818v-241h-523v-344h492v-242h-492v-393h543v-242h-838v1462z" />
    <glyph glyph-name="afii10024" unicode="&#x416;" horiz-adv-x="1624" 
d="M670 1462h284v-600l346 600h306l-367 -618l416 -844h-320l-270 588l-111 -182v-406h-284v406l-111 182l-270 -588h-320l416 844l-367 618h306l346 -600v600z" />
    <glyph glyph-name="afii10025" unicode="&#x417;" horiz-adv-x="1093" 
d="M1012 434q0 -457 -377 -457t-483 108t-107 347v19h295v-15q0 -117 26 -162t62 -65t94 -21q183 0 185 228q1 125 -49 177t-160 52h-43q-31 0 -52 -2v229q9 -2 27 -2h29q121 0 172 54t51 176q0 176 -153 176t-173 -127q-6 -34 -6 -84h-289v12q0 207 121 311t342 104
t335 -100t114 -284t-123 -286q-41 -34 -94 -48q256 -57 256 -340z" />
    <glyph glyph-name="afii10026" unicode="&#x418;" horiz-adv-x="1161" 
d="M102 1462h281v-938l358 938h318v-1462h-281v936l-358 -936h-318v1462z" />
    <glyph glyph-name="afii10027" unicode="&#x419;" horiz-adv-x="1161" 
d="M102 0v1462h281v-938l358 938h318v-1462h-281v936l-358 -936h-318zM596 1554q-133 0 -208 76t-79 211h135q8 -61 49.5 -96t102.5 -35t102 35t50 96h135q-4 -135 -79 -211t-208 -76z" />
    <glyph glyph-name="afii10028" unicode="&#x41a;" horiz-adv-x="1099" 
d="M102 1462h295v-585h4l373 585h320l-398 -626l443 -836h-332l-301 600l-109 -166v-434h-295v1462z" />
    <glyph glyph-name="afii10029" unicode="&#x41b;" horiz-adv-x="1187" 
d="M48 248q28 0 58 5q63 11 94 146q52 226 52 1063h833v-1462h-294v1221h-261q0 -524 -23 -721t-53 -285q-57 -168 -183 -208q-61 -19 -139 -19t-132 12v252q20 -4 48 -4z" />
    <glyph glyph-name="afii10030" unicode="&#x41c;" horiz-adv-x="1515" 
d="M109 1462h438l209 -1032h4l211 1032h436v-1462h-270v1167h-4l-261 -1167h-229l-260 1167h-4v-1167h-270v1462z" />
    <glyph glyph-name="afii10031" unicode="&#x41d;" 
d="M102 1462h295v-559h344v559h295v-1462h-295v649h-344v-649h-295v1462z" />
    <glyph glyph-name="afii10032" unicode="&#x41e;" 
d="M72 729q0 168 15 308q31 289 218 398q98 56 264 56q305 0 415 -213q52 -100 77 -320t-7 -521q-33 -302 -220 -405q-99 -54 -265 -54t-264 54q-185 103 -218 391q-15 138 -15 306zM569 188q126 0 167 124q36 106 36 418t-29 398t-69 116t-105 30t-105 -30
q-77 -59 -90 -263q-6 -102 -6 -331q0 -230 28 -316t68 -116t105 -30z" />
    <glyph glyph-name="afii10033" unicode="&#x41f;" 
d="M102 1462h934v-1462h-295v1221h-344v-1221h-295v1462z" />
    <glyph glyph-name="afii10034" unicode="&#x420;" horiz-adv-x="1062" 
d="M102 1462h516q208 0 314 -137q86 -111 88 -301q0 -329 -275 -414q-86 -27 -190 -26h-158v-584h-295v1462zM528 801q88 0 143 53q54 53 54 165t-47 169t-158 57h-123v-444h131z" />
    <glyph glyph-name="afii10035" unicode="&#x421;" horiz-adv-x="1099" 
d="M72 728q0 168 15 309q31 289 218 398q98 56 260 56t253 -51q166 -93 193 -300q11 -91 11 -171h-295q0 161 -38 233t-142 72t-142 -123t-38 -365t11 -344q21 -193 94 -234q75 -39 156 -6q111 42 111 357h295q0 -121 -18 -226q-62 -356 -458 -356q-294 0 -403 208
q-51 99 -67 237t-16 306z" />
    <glyph glyph-name="afii10036" unicode="&#x422;" horiz-adv-x="983" 
d="M344 1221h-319v241h933v-241h-319v-1221h-295v1221z" />
    <glyph glyph-name="afii10037" unicode="&#x423;" horiz-adv-x="1064" 
d="M313 -8h-87q-28 0 -87 8v223q43 -6 101 -6t90 37t61 104l15 33l-402 1071h328l215 -719l207 719h307l-350 -1052q-77 -239 -156 -323q-47 -51 -115 -73t-127 -22z" />
    <glyph glyph-name="afii10038" unicode="&#x424;" horiz-adv-x="1568" 
d="M637 170q-274 0 -425 151t-151 415t153 416t423 153v186h295v-186q271 0 422.5 -151.5t151.5 -417.5t-150 -416t-424 -150v-193h-295v193zM647 1077q-141 0 -211 -89q-70 -90 -72 -246q0 -156 68 -250t215 -95v680zM922 397q147 -1 215 95t67 249q0 239 -155 312
q-53 25 -127 24v-680z" />
    <glyph glyph-name="afii10039" unicode="&#x425;" horiz-adv-x="1099" 
d="M377 739l-336 723h326l188 -473l186 473h322l-340 -723l364 -739h-331l-211 496l-209 -496h-324z" />
    <glyph glyph-name="afii10040" unicode="&#x426;" horiz-adv-x="1193" 
d="M901 0h-799v1462h295v-1220h344v1220h295v-1220h138v-531h-273v289z" />
    <glyph glyph-name="afii10041" unicode="&#x427;" horiz-adv-x="1081" 
d="M489 549q-223 0 -325 95t-103 300v518h295v-491q0 -157 117 -181q93 -19 211 5v667h295v-1462h-295v569q-90 -20 -195 -20z" />
    <glyph glyph-name="afii10042" unicode="&#x428;" horiz-adv-x="1703" 
d="M102 1462h295v-1220h308v1220h294v-1220h308v1220h295v-1462h-1500v1462z" />
    <glyph glyph-name="afii10043" unicode="&#x429;" horiz-adv-x="1759" 
d="M1466 0h-1364v1462h295v-1220h308v1220h294v-1220h308v1220h295v-1220h137v-531h-273v289z" />
    <glyph glyph-name="afii10044" unicode="&#x42a;" horiz-adv-x="1261" 
d="M289 1221h-264v241h559v-553h155q235 0 353 -106t116 -342q0 -361 -271 -436q-87 -25 -198 -25h-450v1221zM666 223q133 0 187 50t54 186q0 187 -132 217q-44 10 -101 10h-90v-463h82z" />
    <glyph glyph-name="afii10045" unicode="&#x42b;" horiz-adv-x="1540" 
d="M102 1462h295v-553h156q235 0 352 -105t117 -343q0 -361 -271 -436q-87 -25 -198 -25h-451v1462zM479 223q133 0 188 50q54 50 54 186q0 187 -132 217q-44 10 -102 10h-90v-463h82zM1143 1462h295v-1462h-295v1462z" />
    <glyph glyph-name="afii10046" unicode="&#x42c;" horiz-adv-x="1071" 
d="M102 1462h295v-553h156q235 0 352 -105t117 -343q0 -361 -271 -436q-87 -25 -198 -25h-451v1462zM479 223q133 0 188 50q54 50 54 186q0 187 -132 217q-44 10 -102 10h-90v-463h82z" />
    <glyph glyph-name="afii10047" unicode="&#x42d;" horiz-adv-x="1099" 
d="M544 -23q-162 0 -252 41q-170 77 -206 287q-16 100 -18 221h286q2 -190 44 -266t137 -76q164 0 188 252q8 84 10 195h-332v237h330q-6 210 -48 310t-138 100t-136 -64t-44 -204h-287q4 245 110 363t347 118q439 1 481 -487q12 -136 12 -278t-17 -352.5t-205 -332.5
q-100 -64 -262 -64z" />
    <glyph glyph-name="afii10048" unicode="&#x42e;" horiz-adv-x="1630" 
d="M397 641v-641h-295v1462h295v-567h168q13 291 110 431q113 165 386 165q166 0 264 -56q187 -107 220 -412t-2 -600q-15 -138 -67 -238q-108 -208 -406 -208t-411 182q-89 147 -96 482h-166zM1061 188q65 0 105 30q78 59 93 294t3 403q-12 167 -34 233t-62 96t-106 30
q-126 0 -166 -125q-36 -108 -36 -418.5t29 -396.5t69 -116t105 -30z" />
    <glyph glyph-name="afii10049" unicode="&#x42f;" horiz-adv-x="1105" 
d="M1004 1462v-1462h-293v563h-107l-278 -563h-326l313 598q-119 43 -187 145t-67 246q0 144 33 229q96 247 430 244h482zM713 780v465h-117q-124 0 -180 -52q-56 -53 -56 -183t56 -180t172 -50h125z" />
    <glyph glyph-name="afii10065" unicode="&#x430;" horiz-adv-x="985" 
d="M338 -23q-152 0 -215 90t-65 194q-2 176 63 253t215 117l160 43q63 16 88 45q24 29 24 88q-1 131 -131 131q-67 0 -99 -39t-32 -104v-31h-254v27q0 177 114 265q96 74 247 74t230 -24t122 -70q72 -75 74 -243v-580q0 -130 34 -213h-270q-14 26 -35 115h-4
q-50 -86 -114 -112t-152 -26zM328 313q0 -149 112 -149q64 0 116 42t52 128v217q-49 -39 -128 -56q-152 -33 -152 -182z" />
    <glyph glyph-name="afii10066" unicode="&#x431;" horiz-adv-x="995" 
d="M78 666q0 333 76 511q99 238 329 271q103 16 155 28t60 42h211q0 -162 -87 -226q-67 -49 -245 -66.5t-254 -89.5t-85 -247h8q33 101 118 155q86 54 194 55t182 -41q141 -81 180 -292q18 -102 18 -227t-18 -229q-58 -333 -426 -333t-405 420q-11 127 -11 269zM510 915
q-86 0 -117 -79.5t-32 -291.5t30 -296t117 -84t116 81t31 297q0 216 -29.5 294.5t-115.5 78.5z" />
    <glyph glyph-name="afii10067" unicode="&#x432;" horiz-adv-x="993" 
d="M94 1102h465q239 0 307 -150q25 -52 25 -136t-42 -148t-128 -86q203 -43 203 -269q0 -250 -225 -299q-69 -14 -148 -14h-457v1102zM643 337q0 85 -38 114t-122 28h-110v-282h110q78 -1 119 27t41 113zM442 664q94 0 122 15q52 28 52 105t-41 98t-135 21h-67v-239h69z" />
    <glyph glyph-name="afii10068" unicode="&#x433;" horiz-adv-x="782" 
d="M100 1102h674v-213h-391v-889h-283v1102z" />
    <glyph glyph-name="afii10069" unicode="&#x434;" horiz-adv-x="1083" 
d="M199 854v248h743v-889h127v-469h-256v256h-557v-256h-256v469h92q107 233 107 641zM668 213v676h-205v-98q0 -151 -27 -317t-67 -261h299z" />
    <glyph glyph-name="afii10070" unicode="&#x435;" horiz-adv-x="948" 
d="M53 564q0 258 77 392q100 174 347 174t340 -152q78 -127 78 -407v-63h-559v-88q0 -175 74 -235q27 -22 65 -21q72 0 105 51t45 156h254q-7 -193 -101 -293t-299 -101q-273 0 -366 188q-41 83 -51 187q-9 104 -9 212zM481 938q-108 0 -138 -141q-7 -39 -7 -78v-43h289
q-5 134 -25 180t-48 64t-71 18z" />
    <glyph glyph-name="afii10072" unicode="&#x436;" horiz-adv-x="1425" 
d="M578 1102h270v-447l272 447h287l-293 -447l318 -655h-289l-201 444l-94 -139v-305h-270v305l-95 139l-200 -444h-289l317 655l-293 447h287l273 -447v447z" />
    <glyph glyph-name="afii10073" unicode="&#x437;" horiz-adv-x="940" 
d="M569 806q0 138 -118 138q-131 0 -129 -151v-15h-250v19q0 333 393 333q193 0 285 -78t92 -221q0 -84 -30 -136q-54 -91 -134 -113q92 -18 142 -83t50 -164q0 -358 -417 -358q-193 0 -296 85t-104 282v21h252v-15q-1 -186 137 -186q146 0 146 162q0 78 -33 112t-104 35
h-42q-32 0 -55 -2v197q16 -2 47 -2h39q53 0 91 34t38 106z" />
    <glyph glyph-name="afii10074" unicode="&#x438;" horiz-adv-x="1052" 
d="M94 1102h266v-694l299 694h299v-1102h-268v690l-299 -690h-297v1102z" />
    <glyph glyph-name="afii10075" unicode="&#x439;" horiz-adv-x="1052" 
d="M94 0v1102h266v-694l299 694h299v-1102h-268v690l-299 -690h-297zM514 1237q-133 0 -208 76t-79 211h135q8 -61 49.5 -96t102.5 -35t102 34.5t50 96.5h135q-4 -135 -79 -211t-208 -76z" />
    <glyph glyph-name="afii10076" unicode="&#x43a;" horiz-adv-x="1013" 
d="M94 1102h283v-455l291 455h307l-316 -457l361 -645h-313l-222 426l-108 -152v-274h-283v1102z" />
    <glyph glyph-name="afii10077" unicode="&#x43b;" horiz-adv-x="1075" 
d="M50 207q30 0 54 7q96 29 109 528q4 148 4 360h764v-1102h-283v889h-213q0 -560 -88 -754q-43 -94 -107 -123q-65 -28 -144 -28t-146 16v211q20 -4 50 -4z" />
    <glyph glyph-name="afii10078" unicode="&#x43c;" horiz-adv-x="1339" 
d="M94 1102h404l172 -737l172 737h403v-1102h-264v782l-195 -782h-233l-195 782v-782h-264v1102z" />
    <glyph glyph-name="afii10079" unicode="&#x43d;" horiz-adv-x="1024" 
d="M94 1102h283v-408h270v408h283v-1102h-283v469h-270v-469h-283v1102z" />
    <glyph glyph-name="afii10080" unicode="&#x43e;" horiz-adv-x="983" 
d="M486 -23q-240 0 -333.5 136t-94.5 434t100 440.5t339 142.5q239 0 333 -137t95 -437t-99 -440t-340 -139zM492 164q86 0 118 90t33 297q0 207 -33 297t-123 90t-123 -109q-24 -82 -24 -222t4 -212q8 -149 65 -202q30 -29 83 -29z" />
    <glyph glyph-name="afii10081" unicode="&#x43f;" horiz-adv-x="1024" 
d="M94 1102h836v-1102h-283v889h-270v-889h-283v1102z" />
    <glyph glyph-name="afii10082" unicode="&#x440;" horiz-adv-x="1024" 
d="M94 1102h271v-117h4q47 78 105 112t144 33q174 0 256 -136t82 -443t-82 -440t-256 -134q-80 0 -136 30t-101 95h-4v-456h-283v1456zM525 188q93 0 121 92t28 272t-28 270.5t-121 90.5t-121 -90.5t-28 -270.5t28 -272t121 -92z" />
    <glyph glyph-name="afii10083" unicode="&#x441;" horiz-adv-x="948" 
d="M625 705q0 218 -127 221q-100 0 -131 -88t-31 -296t29 -288q31 -92 122 -90q72 0 105 61t33 197h270q1 -217 -97 -331t-321 -114t-318 119q-106 135 -106 455q0 469 266 553q82 27 181 26q197 0 296 -114t99 -311h-270z" />
    <glyph glyph-name="afii10084" unicode="&#x442;" horiz-adv-x="858" 
d="M289 889h-281v213h842v-213h-281v-889h-280v889z" />
    <glyph glyph-name="afii10085" unicode="&#x443;" horiz-adv-x="909" 
d="M94 -354v211q36 -7 94 -7t92 41t39 109l-309 1102h295l164 -762h4l143 762h283l-266 -1028q-37 -140 -71 -224q-64 -160 -190 -189q-65 -15 -163 -15h-115z" />
    <glyph glyph-name="afii10086" unicode="&#x444;" horiz-adv-x="1499" 
d="M891 -354h-283v440q-40 -55 -86 -82q-46 -28 -146 -28t-166 60q-122 109 -136 342q-6 104 -6 192t8 186q18 216 139 316q66 54 191 54t202 -110v446h283v-446q79 112 203 111t190 -55t106 -154t41 -352t-37 -362q-38 -108 -105 -167t-166 -59t-145 26t-87 82v-440z
M350 601q0 -134 4 -201q13 -212 140 -212q88 0 118 97v526q-36 102 -124 101t-117 -103q-21 -74 -21 -208zM1149 496q0 132 -3 198q-9 220 -136 217q-89 0 -123 -100v-526q30 -97 118 -97t120 99q24 77 24 209z" />
    <glyph glyph-name="afii10087" unicode="&#x445;" horiz-adv-x="946" 
d="M313 567l-286 535h295l151 -332l152 332h295l-287 -535l299 -567h-295l-164 360l-164 -360h-295z" />
    <glyph glyph-name="afii10088" unicode="&#x446;" horiz-adv-x="1071" 
d="M801 0h-707v1102h283v-889h270v889h283v-889h127v-469h-256v256z" />
    <glyph glyph-name="afii10089" unicode="&#x447;" horiz-adv-x="978" 
d="M68 715v387h280v-379q0 -75 35 -97t98 -22t117 17v481h283v-1102h-283v420q-114 -20 -186 -21q-176 0 -260 78t-84 238z" />
    <glyph glyph-name="afii10090" unicode="&#x448;" horiz-adv-x="1507" 
d="M94 1102h283v-889h235v889h283v-889h235v889h283v-1102h-1319v1102z" />
    <glyph glyph-name="afii10091" unicode="&#x449;" horiz-adv-x="1554" 
d="M1284 0h-1190v1102h283v-889h235v889h283v-889h235v889h283v-889h127v-469h-256v256z" />
    <glyph glyph-name="afii10092" unicode="&#x44a;" horiz-adv-x="1085" 
d="M668 0h-439v889h-221v213h504v-375h147q381 0 377 -356q0 -371 -368 -371zM606 211q86 -1 121 33t35 120t-36 119t-114 33h-100v-305h94z" />
    <glyph glyph-name="afii10093" unicode="&#x44b;" horiz-adv-x="1372" 
d="M901 371q0 -371 -369 -371h-438v1102h283v-375h147q377 0 377 -356zM471 211q86 -1 121 33t35 120t-36 119t-114 33h-100v-305h94zM995 1102h283v-1102h-283v1102z" />
    <glyph glyph-name="afii10094" unicode="&#x44c;" horiz-adv-x="950" 
d="M901 371q0 -371 -369 -371h-438v1102h283v-375h147q377 0 377 -356zM471 211q86 -1 121 33t35 120t-36 119t-114 33h-100v-305h94z" />
    <glyph glyph-name="afii10095" unicode="&#x44d;" horiz-adv-x="948" 
d="M451 1130q260 0 358 -159q80 -129 81 -411t-89 -421q-104 -162 -344 -162q-313 0 -379 219q-23 73 -25 169h262q6 -109 39.5 -155t111.5 -46t110 78t36 229h-268v195h268q-8 154 -44 213t-113 59q-104 0 -125 -112q-6 -32 -8 -64h-269q24 368 398 368z" />
    <glyph glyph-name="afii10096" unicode="&#x44e;" horiz-adv-x="1425" 
d="M377 469v-469h-283v1102h283v-416h127q20 217 120 331t310 113q246 0 340 -139t94 -437t-99 -437.5t-332 -139.5t-331 120t-104 372h-125zM934 164q86 0 119 90t32 297q0 207 -32 297q-33 90 -124 90t-123 -109q-24 -82 -24 -222t4 -212q8 -149 65 -202q30 -29 83 -29z
" />
    <glyph glyph-name="afii10097" unicode="&#x44f;" horiz-adv-x="983" 
d="M424 1102h465v-1102h-281v408h-78l-200 -408h-324l254 436q-203 74 -205 316q-1 182 101 266t268 84zM610 608v291h-114q-84 -1 -125 -35t-41 -112t37 -111t114 -33h129z" />
    <glyph glyph-name="uni0450" unicode="&#x450;" horiz-adv-x="948" 
d="M53 564q0 258 77 392q100 174 347 174t340 -152q78 -127 78 -407v-63h-559v-88q0 -175 74 -235q27 -22 65 -21q72 0 105 51t45 156h254q-7 -193 -101 -293t-299 -101q-273 0 -366 188q-41 83 -51 187q-9 104 -9 212zM481 938q-108 0 -138 -141q-7 -39 -7 -78v-43h289
q-5 134 -25 180t-48 64t-71 18zM219 1526h277l110 -295h-192z" />
    <glyph glyph-name="afii10071" unicode="&#x451;" horiz-adv-x="948" 
d="M53 564q0 258 77 392q100 174 347 174t340 -152q78 -127 78 -407v-63h-559v-88q0 -175 74 -235q27 -22 65 -21q72 0 105 51t45 156h254q-7 -193 -101 -293t-299 -101q-273 0 -366 188q-41 83 -51 187q-9 104 -9 212zM481 938q-108 0 -138 -141q-7 -39 -7 -78v-43h289
q-5 134 -25 180t-48 64t-71 18zM772 1491v-242h-229v242h229zM420 1491v-242h-223v242h223z" />
    <glyph glyph-name="afii10099" unicode="&#x452;" horiz-adv-x="1024" 
d="M647 143v486q0 86 -29 120t-92 33q-150 0 -149 -182v-600h-283v1098h-123v192h123v172h283v-172h307v-192h-307v-240h4q82 141 268 141q281 0 281 -313v-534q0 -115 -12 -208q-38 -298 -357 -298q-115 0 -139 8v201l67 -5q91 0 125 60t33 233z" />
    <glyph glyph-name="afii10100" unicode="&#x453;" horiz-adv-x="782" 
d="M100 1102h674v-213h-391v-889h-283v1102zM690 1526l-201 -295h-192l111 295h282z" />
    <glyph glyph-name="afii10101" unicode="&#x454;" horiz-adv-x="948" 
d="M602 666v-195h-268q4 -151 37 -229t110 -78t111 46t39 155h262q-8 -388 -404 -388q-243 0 -338 135q-94 134 -95 428t91 431q108 161 349 159q192 0 288 -97t109 -271h-268q-11 176 -133 176q-78 0 -114 -59t-44 -213h268z" />
    <glyph glyph-name="afii10102" unicode="&#x455;" horiz-adv-x="909" 
d="M47 360h254v-36q0 -72 38 -116t107 -44q146 0 146 131q0 53 -31 81t-72 44l-198 72q-234 82 -235 308t219 304q77 27 186 26q193 0 285 -82t92 -231v-45h-254q0 86 -28 126t-89 40t-101 -30t-40 -80t26 -83t97 -55l169 -57q132 -45 188 -118t56 -181t-31 -170
q-92 -187 -400 -187t-365 199q-18 63 -19 146v38z" />
    <glyph glyph-name="afii10103" unicode="&#x456;" horiz-adv-x="491" 
d="M104 1102h283v-1102h-283v1102zM104 1479h283v-242h-283v242z" />
    <glyph glyph-name="afii10104" unicode="&#x457;" horiz-adv-x="491" 
d="M532 1491v-242h-229v242h229zM180 1491v-242h-223v242h223zM387 1102v-1102h-283v1102h283z" />
    <glyph glyph-name="afii10105" unicode="&#x458;" horiz-adv-x="491" 
d="M104 20v1082h283v-1172q0 -70 -15 -123q-46 -161 -286 -161q-71 0 -131 4v205q16 -4 45 -5q70 0 87 42t17 128zM104 1479h283v-242h-283v242z" />
    <glyph glyph-name="afii10106" unicode="&#x459;" horiz-adv-x="1554" 
d="M1137 0h-439v889h-213q0 -560 -88 -754q-43 -94 -107 -123q-65 -28 -144 -28t-146 16v211q20 -4 50 -4t54 7q96 29 109 528q4 148 4 360h764v-375h147q381 0 377 -356q0 -371 -368 -371zM1075 211q86 -1 121 33t35 120t-36 119t-114 33h-100v-305h94z" />
    <glyph glyph-name="afii10107" unicode="&#x45a;" horiz-adv-x="1503" 
d="M94 1102h283v-408h270v408h283v-408h162q179 0 270.5 -79t91.5 -264t-93 -268t-261 -83h-453v473h-270v-473h-283v1102zM1038 211q80 -1 111 35t31 112t-32 107t-104 31h-114v-285h108z" />
    <glyph glyph-name="afii10108" unicode="&#x45b;" horiz-adv-x="1024" 
d="M94 1098h-123v192h123v172h283v-172h307v-192h-307v-240h4q82 141 268 141q281 0 281 -313v-686h-283v629q0 86 -29 120t-92 33q-150 0 -149 -182v-600h-283v1098z" />
    <glyph glyph-name="afii10109" unicode="&#x45c;" horiz-adv-x="1013" 
d="M94 1102h283v-455l291 455h307l-316 -457l361 -645h-313l-222 426l-108 -152v-274h-283v1102zM743 1526l-200 -295h-193l111 295h282z" />
    <glyph glyph-name="uni045D" unicode="&#x45d;" horiz-adv-x="1052" 
d="M94 1102h266v-694l299 694h299v-1102h-268v690l-299 -690h-297v1102zM270 1526h277l110 -295h-192z" />
    <glyph glyph-name="afii10110" unicode="&#x45e;" horiz-adv-x="909" 
d="M209 -354h-115v211q36 -7 94 -7t91.5 41t39.5 109l-309 1102h295l164 -762h4l143 762h283l-266 -1028q-37 -139 -71 -223t-80 -129.5t-110.5 -60.5t-162.5 -15zM471 1237q-133 0 -208 76t-79 211h135q8 -61 49.5 -96t102.5 -35t102 34.5t50 96.5h135q-4 -135 -79 -211
t-208 -76z" />
    <glyph glyph-name="afii10193" unicode="&#x45f;" horiz-adv-x="1024" 
d="M383 0h-289v1102h283v-889h270v889h283v-1102h-291v-256h-256v256z" />
    <glyph glyph-name="afii10146" unicode="&#x462;" horiz-adv-x="1196" 
d="M227 1077h-227v215h227v170h295v-170h350v-215h-350v-168h156q235 0 352 -105t117 -343q0 -361 -271 -436q-87 -25 -198 -25h-451v1077zM604 223q133 0 188 50q54 50 54 186q0 186 -132 217q-44 10 -102 10h-90v-463h82z" />
    <glyph glyph-name="afii10194" unicode="&#x463;" horiz-adv-x="1028" 
d="M979 371q0 -371 -369 -371h-438v909h-172v193h172v360h283v-360h280v-193h-280v-182h147q377 0 377 -356zM549 211q86 -1 121 33t35 120t-36 119t-114 33h-100v-305h94z" />
    <glyph glyph-name="uni046A" unicode="&#x46a;" horiz-adv-x="1687" 
d="M94 475q0 205 104 300t326 95h84l-291 592h1053l-291 -592h84q223 0 327 -95t103 -300v-475h-295v449q0 153 -118 181q-35 7 -74 7h-115v-637h-295v637h-114q-91 1 -127 -27q-66 -50 -66 -161v-449h-295v475zM846 911l135 330h-266l127 -330h4z" />
    <glyph glyph-name="uni046B" unicode="&#x46b;" horiz-adv-x="1490" 
d="M86 326q0 160 84 238t260 77h105l-234 461h893l-233 -461h100q176 0 260 -78t84 -237v-326h-281v317q0 76 -34 98q-35 22 -89 21h-114v-436h-283v436h-115q-53 0 -88 -22t-34 -97v-317h-281v326zM844 909h-180l84 -241z" />
    <glyph glyph-name="afii10147" unicode="&#x472;" 
d="M72 729q0 168 15 308q31 289 218 398q98 56 264 56q305 0 415 -213q52 -100 77 -320t-7 -521q-33 -302 -220 -405q-99 -54 -265 -54t-264 54q-185 103 -218 391q-15 138 -15 306zM434 694q-32 0 -67 -45q4 -261 46 -361t158 -100t157 104q38 93 42 349q-44 -59 -79 -59
t-67 17t-65 39t-63 39t-62 17zM695 803q36 0 75 35q-4 246 -46 341t-154 95t-155.5 -93t-47.5 -317q40 51 84 51t126 -56t118 -56z" />
    <glyph glyph-name="afii10195" unicode="&#x473;" horiz-adv-x="983" 
d="M486 -23q-240 0 -333.5 136t-94.5 434t100 440.5t339 142.5q239 0 333 -137t95 -437t-99 -440t-340 -139zM404 512q-26 0 -64 -57q4 -147 28 -199t51.5 -72t72.5 -20q80 0 114 76t37 252q-44 -76 -86 -74q-23 0 -42 14t-52 47t-59 33zM416.5 690q39.5 0 89.5 -47t67 -47
q35 0 68 57q-8 153 -42 219t-107 66q-121 0 -144 -187q-6 -58 -8 -128q37 67 76.5 67z" />
    <glyph glyph-name="afii10148" unicode="&#x474;" horiz-adv-x="1114" 
d="M1070 1214q-45 0 -70 -17q-42 -29 -62 -120l-227 -1077h-379l-326 1462h316l196 -1081h6l129 760q44 276 224 319q123 30 258 2v-252q-20 4 -65 4z" />
    <glyph glyph-name="afii10196" unicode="&#x475;" horiz-adv-x="940" 
d="M842 1118q64 0 131 -16v-211q-20 4 -56 4t-67 -16t-47 -86l-191 -793h-327l-275 1102h295l148 -789h4l92 541q38 226 184 255q45 9 109 9z" />
    <glyph glyph-name="Izhitsadblgravecyrillic" unicode="&#x476;" horiz-adv-x="1114" 
d="M485 1872l111 -295h-190l-201 295h280zM825 1872l107 -295h-189l-200 295h282zM1070 1214q-45 0 -70 -17q-42 -29 -62 -120l-227 -1077h-379l-326 1462h316l196 -1081h6l129 760q44 276 224 319q123 30 258 2v-252q-20 4 -65 4z" />
    <glyph glyph-name="izhitsadblgravecyrillic" unicode="&#x477;" horiz-adv-x="940" 
d="M408 1522l110 -295h-190l-201 295h281zM748 1522l106 -295h-188l-201 295h283zM842 1118q64 0 131 -16v-211q-20 4 -56 4t-67 -16t-47 -86l-191 -793h-327l-275 1102h295l148 -789h4l92 541q38 226 184 255q45 9 109 9z" />
    <glyph glyph-name="uni048C" unicode="&#x48c;" horiz-adv-x="1196" 
d="M227 1247h-227v215h227v217h295v-217h248v-215h-248v-338h156q235 0 352 -105t117 -343q0 -361 -271 -436q-87 -25 -198 -25h-451v1247zM604 223q133 0 188 50q54 50 54 186q0 186 -132 217q-44 10 -102 10h-90v-463h82z" />
    <glyph glyph-name="uni048D" unicode="&#x48d;" horiz-adv-x="1028" 
d="M979 371q0 -371 -369 -371h-438v864h-184v193h184v223h283v-223h239v-193h-239v-137h147q377 0 377 -356zM549 211q86 -1 121 33t35 120t-36 119t-114 33h-100v-305h94z" />
    <glyph glyph-name="afii10050" unicode="&#x490;" horiz-adv-x="909" 
d="M111 1462h507v285h273v-526h-485v-1221h-295v1462z" />
    <glyph glyph-name="afii10098" unicode="&#x491;" horiz-adv-x="782" 
d="M100 1102h418v295h256v-508h-391v-889h-283v1102z" />
    <glyph glyph-name="uni0492" unicode="&#x492;" horiz-adv-x="1003" 
d="M205 635h-195v242h195v585h780v-241h-485v-344h340v-242h-340v-635h-295v635z" />
    <glyph glyph-name="uni0493" unicode="&#x493;" horiz-adv-x="839" 
d="M158 461h-150v213h150v428h673v-213h-391v-215h265v-213h-265v-461h-282v461z" />
    <glyph glyph-name="uni0496" unicode="&#x496;" horiz-adv-x="1673" 
d="M1401 0h-66l-270 588l-111 -182v-406h-284v406l-111 182l-270 -588h-320l416 844l-367 618h306l346 -600v600h284v-600l346 600h306l-367 -618l297 -602h137v-531h-272v289z" />
    <glyph glyph-name="uni0497" unicode="&#x497;" horiz-adv-x="1445" 
d="M1200 0h-57l-201 444l-94 -139v-305h-270v305l-95 139l-200 -444h-289l317 655l-293 447h287l273 -447v447h270v-447l272 447h287l-293 -447l215 -442h127v-469h-256v256z" />
    <glyph glyph-name="uni0498" unicode="&#x498;" horiz-adv-x="1093" 
d="M600 -109q45 0 82 -29q66 -52 68 -122q0 -92 -66 -142t-196 -50t-201 38l39 95q60 -31 122 -31t92 20t30 50t-25 50t-64 19.5t-71 -12.5l-45 41l98 162q-217 10 -317 112t-101 340v19h295v-15q0 -117 26 -162t62 -65t94 -21q183 0 185 228q1 125 -49 177t-160 52h-43
q-31 0 -52 -2v229q10 -2 27 -2h29q121 0 172 54t51 176q0 176 -153 176t-173 -127q-6 -34 -6 -84h-289v12q0 207 121 311t342 104t335 -100t114 -284t-123 -286q-41 -34 -94 -48q256 -57 256 -340q0 -422 -439 -454l-63 -99q45 10 90 10z" />
    <glyph glyph-name="uni0499" unicode="&#x499;" horiz-adv-x="940" 
d="M569 806q0 138 -118 138q-131 0 -129 -151v-15h-250v19q0 333 393 333q193 0 285 -78t92 -221q0 -84 -30 -136q-54 -91 -134 -113q92 -18 142 -83t50 -164q0 -274 -247 -337q-51 -12 -111 -18l-63 -99q45 10 90 10t82 -29q67 -52 67 -133t-66 -131t-196 -50t-201 38
l39 95q60 -31 122 -31t92 20t30 50t-36 59t-124 -2l-45 41l98 162q-156 10 -245 81q-102 86 -103 283v21h252v-15q-1 -186 137 -186q146 0 146 162q0 78 -33 112t-104 35h-43q-31 0 -54 -2v197q16 -2 47 -2h39q53 0 91 34t38 106z" />
    <glyph glyph-name="uni049A" unicode="&#x49a;" horiz-adv-x="1128" 
d="M877 0h-70l-301 600l-109 -166v-434h-295v1462h295v-585h4l373 585h320l-398 -626l316 -594h137v-531h-272v289z" />
    <glyph glyph-name="uni049B" unicode="&#x49b;" horiz-adv-x="1028" 
d="M772 0h-65l-222 426l-108 -152v-274h-283v1102h283v-455l291 455h307l-316 -457l242 -432h127v-469h-256v256z" />
    <glyph glyph-name="uni049C" unicode="&#x49c;" horiz-adv-x="1189" 
d="M102 1462h295v-559h70v271h123v-271h14l297 559h305l-385 -671l410 -791h-332l-307 649h-2v-295h-123v295h-70v-649h-295v1462z" />
    <glyph glyph-name="uni049D" unicode="&#x49d;" horiz-adv-x="1110" 
d="M94 1102h283v-408h61v197h103v-197h8l237 408h308l-318 -494l340 -608h-336l-233 469h-6v-223h-103v223h-61v-469h-283v1102z" />
    <glyph glyph-name="uni04A0" unicode="&#x4a0;" horiz-adv-x="1286" 
d="M289 1221h-264v241h559v-585h4l373 585h319l-397 -626l442 -836h-332l-301 600l-108 -166v-434h-295v1221z" />
    <glyph glyph-name="uni04A1" unicode="&#x4a1;" horiz-adv-x="1148" 
d="M229 889h-221v213h504v-455l291 455h307l-315 -457l360 -645h-313l-221 426l-109 -152v-274h-283v889z" />
    <glyph glyph-name="uni04A2" unicode="&#x4a2;" 
d="M901 0h-160v649h-344v-649h-295v1462h295v-559h344v559h295v-1220h138v-531h-273v289z" />
    <glyph glyph-name="uni04A3" unicode="&#x4a3;" horiz-adv-x="1024" 
d="M801 0h-154v469h-270v-469h-283v1102h283v-408h270v408h283v-889h127v-469h-256v256z" />
    <glyph glyph-name="uni04A4" unicode="&#x4a4;" horiz-adv-x="1540" 
d="M102 1462h295v-559h344v559h781v-241h-486v-1221h-295v649h-344v-649h-295v1462z" />
    <glyph glyph-name="uni04A5" unicode="&#x4a5;" horiz-adv-x="1329" 
d="M94 1102h283v-408h270v408h674v-213h-391v-889h-283v469h-270v-469h-283v1102z" />
    <glyph glyph-name="uni04AA" unicode="&#x4aa;" horiz-adv-x="1099" 
d="M780 -271q0 -81 -66 -131t-196 -50t-201 38l39 95q60 -31 122 -31t92 20t30 50t-36 59t-124 -2l-45 41l101 164q-243 17 -341 203q-51 99 -67 237t-16 306t15 309q31 289 218 398q98 56 260 56t253 -51q166 -93 193 -300q11 -91 11 -171h-295q0 161 -38 233t-142 72
t-142 -123t-38 -365t11 -344q21 -193 94 -234q75 -39 156 -6q111 42 111 357h295q0 -275 -87 -411q-99 -157 -343 -171l-63 -96q115 25 177 -23t62 -129z" />
    <glyph glyph-name="uni04AB" unicode="&#x4ab;" horiz-adv-x="948" 
d="M700 -271q0 -81 -66 -131t-198 -50t-198 38l38 95q60 -31 122 -31t92 20t30 50t-24 50q-26 19 -64 19t-72 -12l-45 41l101 162q-70 6 -138 28q-226 76 -226 544t267 552q82 27 181 26q197 0 296 -114t99 -311h-270q0 218 -127 221q-100 0 -131 -88t-31 -296t29 -288
q31 -92 122 -90q72 0 105 61t33 197h270q0 -216 -92 -324t-279 -118l-63 -99q45 10 90 10t82 -29q67 -52 67 -133z" />
    <glyph glyph-name="uni04AE" unicode="&#x4ae;" horiz-adv-x="1064" 
d="M680 0h-295v575l-379 887h332l192 -565h5l204 565h320l-379 -887v-575z" />
    <glyph glyph-name="uni04AF" unicode="&#x4af;" horiz-adv-x="909" 
d="M600 -354h-283v381l-307 1075h295l158 -752h4l149 752h283l-299 -1075v-381z" />
    <glyph glyph-name="uni04B0" unicode="&#x4b0;" horiz-adv-x="1064" 
d="M385 274h-235v215h235v86l-379 887h332l192 -565h5l204 565h320l-379 -887v-86h231v-215h-231v-274h-295v274z" />
    <glyph glyph-name="uni04B1" unicode="&#x4b1;" horiz-adv-x="909" 
d="M317 -211h-174v195h174v43l-307 1075h295l158 -752h4l149 752h283l-299 -1075v-43h176v-195h-176v-143h-283v143z" />
    <glyph glyph-name="uni04B2" unicode="&#x4b2;" horiz-adv-x="1099" 
d="M834 0h-78l-211 496l-209 -496h-324l365 739l-336 723h326l188 -473l186 473h322l-340 -723l246 -497h137v-531h-272v289z" />
    <glyph glyph-name="uni04B3" unicode="&#x4b3;" horiz-adv-x="946" 
d="M690 0h-53l-164 360l-164 -360h-295l299 567l-286 535h295l151 -332l152 332h295l-287 -535l186 -354h127v-469h-256v256z" />
    <glyph glyph-name="uni04B6" unicode="&#x4b6;" horiz-adv-x="1136" 
d="M356 971q0 -157 118 -181q92 -19 210 5v667h295v-1220h137v-531h-272v289h-160v569q-90 -20 -195 -20q-223 0 -325 95t-103 300v518h295v-491z" />
    <glyph glyph-name="uni04B7" unicode="&#x4b7;" horiz-adv-x="1021" 
d="M348 723q0 -75 35 -97t98 -22t117 17v481h283v-889h127v-469h-256v256h-154v420q-114 -20 -186 -21q-176 0 -260 78t-84 238v387h280v-379z" />
    <glyph glyph-name="uni04B8" unicode="&#x4b8;" horiz-adv-x="1101" 
d="M602 252h-123v297q-219 2 -318 96t-100 299v518h295v-491q0 -157 123 -183v283h123v-289q68 5 103 13v667h294v-1462h-294v569q-65 -11 -103 -14v-303z" />
    <glyph glyph-name="uni04B9" unicode="&#x4b9;" horiz-adv-x="1015" 
d="M549 184h-103v215h-34q-176 0 -260 78t-84 238v387h280v-379q0 -67 27 -91t71 -28v225h103v-221q86 12 90 13v481h283v-1102h-283v420l-90 -12v-224z" />
    <glyph glyph-name="uni04BA" unicode="&#x4ba;" horiz-adv-x="1081" 
d="M725 512q0 108 -65 160q-35 28 -114 28t-149 -12v-688h-295v1462h295v-549q94 21 195 21q224 0 326 -95t102 -300v-539h-295v512z" />
    <glyph glyph-name="uni04BB" unicode="&#x4bb;" horiz-adv-x="1024" 
d="M94 1462h283v-473h4q82 141 268 141q281 0 281 -313v-817h-283v760q0 86 -29 120t-92 33q-150 0 -149 -182v-731h-283v1462z" />
    <glyph glyph-name="uni04C0" unicode="&#x4c0;" horiz-adv-x="528" 
d="M117 1462h295v-1462h-295v1462z" />
    <glyph glyph-name="uni04C1" unicode="&#x4c1;" horiz-adv-x="1624" 
d="M670 1462h284v-600l346 600h306l-367 -618l416 -844h-320l-270 588l-111 -182v-406h-284v406l-111 182l-270 -588h-320l416 844l-367 618h306l346 -600v600zM811 1554q-133 0 -208 76t-79 211h135q8 -61 49.5 -96t102.5 -35t102 35t50 96h135q-4 -135 -79 -211t-208 -76z
" />
    <glyph glyph-name="uni04C2" unicode="&#x4c2;" horiz-adv-x="1425" 
d="M578 1102h270v-447l272 447h287l-293 -447l318 -655h-289l-201 444l-94 -139v-305h-270v305l-95 139l-200 -444h-289l317 655l-293 447h287l273 -447v447zM708.5 1237q-133.5 0 -208 76t-78.5 211h135q8 -61 49 -96t102.5 -35t102.5 34.5t49 96.5h135q-4 -135 -78.5 -211
t-208 -76z" />
    <glyph glyph-name="uni04D0" unicode="&#x4d0;" 
d="M387 1462h365l387 -1462h-308l-67 309h-389l-68 -309h-307zM713 551l-142 657h-4l-141 -657h287zM565 1710q59 0 103 37q43 37 49 96h133q0 -180 -148 -259q-55 -30 -137 -30q-151 0 -222 104q-56 82 -56 185h127q6 -59 49 -96t102 -37z" />
    <glyph glyph-name="uni04D1" unicode="&#x4d1;" horiz-adv-x="985" 
d="M338 -23q-152 0 -215 90t-65 194q-2 176 63 253t215 117l160 43q63 16 88 45q24 29 24 88q-1 131 -131 131q-67 0 -99 -39t-32 -104v-31h-254v27q0 177 114 265q96 74 247 74t230 -24t122 -70q72 -75 74 -243v-580q0 -130 34 -213h-270q-14 26 -35 115h-4
q-50 -86 -114 -112t-152 -26zM328 313q0 -149 112 -149q64 0 116 42t52 128v217q-49 -39 -128 -56q-152 -33 -152 -182zM489 1393q59 0 103 37q43 37 49 96h133q0 -106 -59 -186q-77 -103 -227 -103t-221 103q-56 82 -56 186h127q6 -59 49 -96t102 -37z" />
    <glyph glyph-name="uni04D2" unicode="&#x4d2;" 
d="M387 1462h365l387 -1462h-308l-67 309h-389l-68 -309h-307zM713 551l-142 657h-4l-141 -657h287zM856 1808v-241h-229v241h229zM504 1808v-241h-223v241h223z" />
    <glyph glyph-name="uni04D3" unicode="&#x4d3;" horiz-adv-x="985" 
d="M338 -23q-152 0 -215 90t-65 194q-2 176 63 253t215 117l160 43q63 16 88 45q24 29 24 88q-1 131 -131 131q-67 0 -99 -39t-32 -104v-31h-254v27q0 177 114 265q96 74 247 74t230 -24t122 -70q72 -75 74 -243v-580q0 -130 34 -213h-270q-14 26 -35 115h-4
q-50 -86 -114 -112t-152 -26zM328 313q0 -149 112 -149q64 0 116 42t52 128v217q-49 -39 -128 -56q-152 -33 -152 -182zM780 1491v-242h-229v242h229zM428 1491v-242h-223v242h223z" />
    <glyph glyph-name="uni04D4" unicode="&#x4d4;" horiz-adv-x="1554" 
d="M1489 1462v-241h-481v-344h450v-242h-450v-393h501v-242h-784v309h-326l-102 -309h-301l545 1462h948zM725 551v682h-18l-228 -682h246z" />
    <glyph glyph-name="uni04D5" unicode="&#x4d5;" horiz-adv-x="1478" 
d="M475 938q-67 0 -99 -39t-32 -104v-31h-254v27q0 177 114 265q96 74 273 74q111 0 175 -28t110 -103q66 131 278 131t306 -152q77 -125 77 -407v-63h-555v-88q0 -173 73 -235q26 -22 65 -21q70 0 102 51t45 156h254q-8 -193 -103 -293t-294 -101q-152 -1 -228 53t-104 132
q-33 -61 -69 -99q-65 -65 -171 -79q-50 -6 -120 -7q-134 0 -197 90t-65 194q-2 176 63 253t215 117l160 43q63 16 88 45q24 29 24 88q-1 131 -131 131zM438 164q64 0 116 42t52 128v217q-49 -39 -128 -56q-154 -33 -153 -182t113 -149zM1012 938q-138 0 -144 -219v-43h285
q-4 130 -30 196t-111 66z" />
    <glyph glyph-name="uni04D6" unicode="&#x4d6;" horiz-adv-x="985" 
d="M102 0v1462h818v-241h-523v-344h492v-242h-492v-393h543v-242h-838zM534.5 1554q-133.5 0 -208 76t-78.5 211h135q8 -61 49 -96t102.5 -35t102.5 35t49 96h135q-4 -135 -78.5 -211t-208 -76z" />
    <glyph glyph-name="uni04D7" unicode="&#x4d7;" horiz-adv-x="948" 
d="M53 564q0 258 77 392q100 174 347 174t340 -152q78 -127 78 -407v-63h-559v-88q0 -175 74 -235q27 -22 65 -21q72 0 105 51t45 156h254q-7 -193 -101 -293t-299 -101q-273 0 -366 188q-41 83 -51 187q-9 104 -9 212zM481 938q-108 0 -138 -141q-7 -39 -7 -78v-43h289
q-5 134 -25 180t-48 64t-71 18zM471 1393q59 0 102 37t50 96h133q0 -104 -60 -186q-77 -103 -226 -103t-221 103q-56 82 -56 186h126q5 -59 49 -96t103 -37z" />
    <glyph glyph-name="uni04D8" unicode="&#x4d8;" horiz-adv-x="1124" 
d="M72 622v143q0 46 4 93h680q-8 228 -39 300t-68 96t-94 24q-92 0 -129 -65t-51 -199h-293q26 234 129 356t344 121q166 0 264 -56q187 -107 220 -412t-2 -600q-15 -138 -67 -238q-109 -208 -404 -208t-407 200q-87 156 -87 445zM555 184q59 0 97 25q76 50 92 217
q9 84 12 205h-389q5 -257 31 -327t62 -95t95 -25z" />
    <glyph glyph-name="afii10846" unicode="&#x4d9;" horiz-adv-x="956" 
d="M57 602h559v88q0 176 -73 235q-27 22 -66 21q-73 0 -105 -51t-44 -156h-254q8 193 101 293t298 101q274 0 367 -188q41 -83 50 -187t9 -212q0 -261 -77 -392q-100 -174 -347 -174t-340 152q-76 123 -78 407v63zM471 172q112 0 138 141q7 39 7 78v43h-288q4 -138 24 -182
t48 -62t71 -18z" />
    <glyph glyph-name="Schwadieresiscyrillic" unicode="&#x4da;" horiz-adv-x="1124" 
d="M621 1835h227v-242h-227v242zM272 1835h226v-242h-226v242zM72 622v143q0 46 4 93h680q-8 228 -39 300t-68 96t-94 24q-92 0 -129 -65t-51 -199h-293q26 234 129 356t344 121q166 0 264 -56q187 -107 220 -412t-2 -600q-15 -138 -67 -238q-109 -208 -404 -208t-407 200
q-87 156 -87 445zM555 184q59 0 97 25q76 50 92 217q9 84 12 205h-389q5 -257 31 -327t62 -95t95 -25z" />
    <glyph glyph-name="schwadieresiscyrillic" unicode="&#x4db;" horiz-adv-x="956" 
d="M537 1487h227v-242h-227v242zM188 1487h226v-242h-226v242zM57 602h559v88q0 176 -73 235q-27 22 -66 21q-73 0 -105 -51t-44 -156h-254q8 193 101 293t298 101q274 0 367 -188q41 -83 50 -187t9 -212q0 -261 -77 -392q-100 -174 -347 -174t-340 152q-76 123 -78 407v63z
M471 172q112 0 138 141q7 39 7 78v43h-288q4 -138 24 -182t48 -62t71 -18z" />
    <glyph glyph-name="uni04DC" unicode="&#x4dc;" horiz-adv-x="1624" 
d="M670 1462h284v-600l346 600h306l-367 -618l416 -844h-320l-270 588l-111 -182v-406h-284v406l-111 182l-270 -588h-320l416 844l-367 618h306l346 -600v600zM1100 1808v-241h-230v241h230zM748 1808v-241h-224v241h224z" />
    <glyph glyph-name="uni04DD" unicode="&#x4dd;" horiz-adv-x="1425" 
d="M578 1102h270v-447l272 447h287l-293 -447l318 -655h-289l-201 444l-94 -139v-305h-270v305l-95 139l-200 -444h-289l317 655l-293 447h287l273 -447v447zM999 1491v-242h-229v242h229zM647 1491v-242h-223v242h223z" />
    <glyph glyph-name="uni04DE" unicode="&#x4de;" horiz-adv-x="1093" 
d="M1012 434q0 -457 -377 -457t-483 108t-107 347v19h295v-15q0 -117 26 -162t62 -65t94 -21q183 0 185 228q1 125 -49 177t-160 52h-43q-31 0 -52 -2v229q9 -2 27 -2h29q121 0 172 54t51 176q0 176 -153 176t-173 -127q-6 -34 -6 -84h-289v12q0 207 121 311t342 104
t335 -100t114 -284t-123 -286q-41 -34 -94 -48q256 -57 256 -340zM834 1808v-241h-230v241h230zM481 1808v-241h-223v241h223z" />
    <glyph glyph-name="uni04DF" unicode="&#x4df;" horiz-adv-x="940" 
d="M569 806q0 138 -118 138q-131 0 -129 -151v-15h-250v19q0 333 393 333q193 0 285 -78t92 -221q0 -84 -30 -136q-54 -91 -134 -113q92 -18 142 -83t50 -164q0 -358 -417 -358q-193 0 -296 85t-104 282v21h252v-15q-1 -186 137 -186q146 0 146 162q0 78 -33 112t-104 35
h-42q-32 0 -55 -2v197q16 -2 47 -2h39q53 0 91 34t38 106zM758 1491v-242h-230v242h230zM406 1491v-242h-224v242h224z" />
    <glyph glyph-name="uni04E2" unicode="&#x4e2;" horiz-adv-x="1161" 
d="M102 1462h281v-938l358 938h318v-1462h-281v936l-358 -936h-318v1462zM879 1624h-596v156h596v-156z" />
    <glyph glyph-name="uni04E3" unicode="&#x4e3;" horiz-adv-x="1052" 
d="M94 1102h266v-694l299 694h299v-1102h-268v690l-299 -690h-297v1102zM823 1307h-596v155h596v-155z" />
    <glyph glyph-name="uni04E4" unicode="&#x4e4;" horiz-adv-x="1161" 
d="M102 1462h281v-938l358 938h318v-1462h-281v936l-358 -936h-318v1462zM868 1808v-241h-229v241h229zM516 1808v-241h-223v241h223z" />
    <glyph glyph-name="uni04E5" unicode="&#x4e5;" horiz-adv-x="1052" 
d="M94 1102h266v-694l299 694h299v-1102h-268v690l-299 -690h-297v1102zM813 1491v-242h-229v242h229zM461 1491v-242h-223v242h223z" />
    <glyph glyph-name="uni04E6" unicode="&#x4e6;" 
d="M72 729q0 168 15 308q31 289 218 398q98 56 264 56q305 0 415 -213q52 -100 77 -320t-7 -521q-33 -302 -220 -405q-99 -54 -265 -54t-264 54q-185 103 -218 391q-15 138 -15 306zM569 188q126 0 167 124q36 106 36 418t-29 398t-69 116t-105 30t-105 -30
q-77 -59 -90 -263q-6 -102 -6 -331q0 -230 28 -316t68 -116t105 -30zM856 1808v-241h-229v241h229zM504 1808v-241h-223v241h223z" />
    <glyph glyph-name="uni04E7" unicode="&#x4e7;" horiz-adv-x="983" 
d="M486 -23q-240 0 -333.5 136t-94.5 434t100 440.5t339 142.5q239 0 333 -137t95 -437t-99 -440t-340 -139zM492 164q86 0 118 90t33 297q0 207 -33 297t-123 90t-123 -109q-24 -82 -24 -222t4 -212q8 -149 65 -202q30 -29 83 -29zM778 1491v-242h-229v242h229zM426 1491
v-242h-223v242h223z" />
    <glyph glyph-name="uni04E8" unicode="&#x4e8;" 
d="M72 729q0 168 15 308q31 289 218 398q98 56 264 56q305 0 415 -213q52 -100 77 -320t-7 -521q-33 -302 -220 -405q-99 -54 -265 -54t-264 54q-185 103 -218 391q-15 138 -15 306zM571 188q117 0 157 105q38 95 42 352h-403q3 -259 45 -358t159 -99zM570 1274
q-112 0 -154 -90t-47 -318h401q-6 216 -47 312t-153 96z" />
    <glyph glyph-name="uni04E9" unicode="&#x4e9;" horiz-adv-x="983" 
d="M486 -23q-240 0 -333.5 136t-94.5 434t100 440.5t339 142.5q239 0 333 -137t95 -437t-99 -440t-340 -139zM492 164q78 0 112 73t37 242h-301q5 -163 26 -217t50 -76t76 -22zM484 938q-78 0 -108 -75t-34 -197h297q-9 144 -43 208t-112 64z" />
    <glyph glyph-name="Obarreddieresiscyrillic" unicode="&#x4ea;" 
d="M629 1835h227v-242h-227v242zM281 1835h225v-242h-225v242zM72 729q0 168 15 308q31 289 218 398q98 56 264 56q305 0 415 -213q52 -100 77 -320t-7 -521q-33 -302 -220 -405q-99 -54 -265 -54t-264 54q-185 103 -218 391q-15 138 -15 306zM571 188q117 0 157 105
q38 95 42 352h-403q3 -259 45 -358t159 -99zM570 1274q-112 0 -154 -90t-47 -318h401q-6 216 -47 312t-153 96z" />
    <glyph glyph-name="obarreddieresiscyrillic" unicode="&#x4eb;" horiz-adv-x="983" 
d="M551 1485h227v-242h-227v242zM203 1485h225v-242h-225v242zM486 -23q-240 0 -333.5 136t-94.5 434t100 440.5t339 142.5q239 0 333 -137t95 -437t-99 -440t-340 -139zM492 164q78 0 112 73t37 242h-301q5 -163 26 -217t50 -76t76 -22zM484 938q-78 0 -108 -75t-34 -197
h297q-9 144 -43 208t-112 64z" />
    <glyph glyph-name="uni04EC" unicode="&#x4ec;" horiz-adv-x="1099" 
d="M606 1835h228v-242h-228v242zM258 1835h225v-242h-225v242zM544 -23q-162 0 -252 41q-170 77 -206 287q-16 100 -18 221h286q2 -190 44 -266t137 -76q164 0 188 252q8 84 10 195h-332v237h330q-6 210 -48 310t-138 100t-136 -64t-44 -204h-287q4 245 110 363t347 118
q439 1 481 -487q12 -136 12 -278t-17 -352.5t-205 -332.5q-100 -64 -262 -64z" />
    <glyph glyph-name="uni04ED" unicode="&#x4ed;" horiz-adv-x="948" 
d="M530 1485h228v-242h-228v242zM182 1485h226v-242h-226v242zM451 1130q260 0 358 -159q80 -129 81 -411t-89 -421q-104 -162 -344 -162q-313 0 -379 219q-23 73 -25 169h262q6 -109 39.5 -155t111.5 -46t110 78t36 229h-268v195h268q-8 154 -44 213t-113 59
q-104 0 -125 -112q-6 -32 -8 -64h-269q24 368 398 368z" />
    <glyph glyph-name="uni04EE" unicode="&#x4ee;" horiz-adv-x="1064" 
d="M313 -8h-87q-28 0 -87 8v223q43 -6 101 -6t90 37t61 104l15 33l-402 1071h328l215 -719l207 719h307l-350 -1052q-77 -239 -156 -323q-47 -51 -115 -73t-127 -22zM829 1624h-596v156h596v-156z" />
    <glyph glyph-name="uni04EF" unicode="&#x4ef;" horiz-adv-x="909" 
d="M94 -354v211q36 -7 94 -7t92 41t39 109l-309 1102h295l164 -762h4l143 762h283l-266 -1028q-37 -140 -71 -224q-64 -160 -190 -189q-65 -15 -163 -15h-115zM752 1307h-596v155h596v-155z" />
    <glyph glyph-name="uni04F0" unicode="&#x4f0;" horiz-adv-x="1064" 
d="M313 -8h-87q-28 0 -87 8v223q43 -6 101 -6t90 37t61 104l15 33l-402 1071h328l215 -719l207 719h307l-350 -1052q-77 -239 -156 -323q-47 -51 -115 -73t-127 -22zM819 1808v-241h-229v241h229zM467 1808v-241h-223v241h223z" />
    <glyph glyph-name="uni04F1" unicode="&#x4f1;" horiz-adv-x="909" 
d="M94 -354v211q36 -7 94 -7t92 41t39 109l-309 1102h295l164 -762h4l143 762h283l-266 -1028q-37 -140 -71 -224q-64 -160 -190 -189q-65 -15 -163 -15h-115zM741 1491v-242h-229v242h229zM389 1491v-242h-223v242h223z" />
    <glyph glyph-name="uni04F2" unicode="&#x4f2;" horiz-adv-x="1064" 
d="M313 -8h-87q-28 0 -87 8v223q43 -6 101 -6t90 37t61 104l15 33l-402 1071h328l215 -719l207 719h307l-350 -1052q-77 -239 -156 -323q-47 -51 -115 -73t-127 -22zM1006 1843l-201 -295h-193l111 295h283zM666 1843l-201 -295h-186l104 295h283z" />
    <glyph glyph-name="uni04F3" unicode="&#x4f3;" horiz-adv-x="909" 
d="M94 -354v211q36 -7 94 -7t92 41t39 109l-309 1102h295l164 -762h4l143 762h283l-266 -1028q-37 -140 -71 -224q-64 -160 -190 -189q-65 -15 -163 -15h-115zM883 1526l-201 -295h-193l111 295h283zM543 1526l-201 -295h-186l104 295h283z" />
    <glyph glyph-name="uni04F4" unicode="&#x4f4;" horiz-adv-x="1081" 
d="M489 549q-223 0 -325 95t-103 300v518h295v-491q0 -157 117 -181q93 -19 211 5v667h295v-1462h-295v569q-90 -20 -195 -20zM827 1808v-241h-229v241h229zM475 1808v-241h-223v241h223z" />
    <glyph glyph-name="uni04F5" unicode="&#x4f5;" horiz-adv-x="978" 
d="M68 715v387h280v-379q0 -75 35 -97t98 -22t117 17v481h283v-1102h-283v420q-114 -20 -186 -21q-176 0 -260 78t-84 238zM776 1491v-242h-229v242h229zM424 1491v-242h-223v242h223z" />
    <glyph glyph-name="uni04F8" unicode="&#x4f8;" horiz-adv-x="1540" 
d="M102 1462h295v-553h156q235 0 352 -105t117 -343q0 -361 -271 -436q-87 -25 -198 -25h-451v1462zM479 223q133 0 188 50q54 50 54 186q0 187 -132 217q-44 10 -102 10h-90v-463h82zM1143 1462h295v-1462h-295v1462zM1057 1808v-241h-230v241h230zM705 1808v-241h-224v241
h224z" />
    <glyph glyph-name="uni04F9" unicode="&#x4f9;" horiz-adv-x="1372" 
d="M901 371q0 -371 -369 -371h-438v1102h283v-375h147q377 0 377 -356zM471 211q86 -1 121 33t35 120t-36 119t-114 33h-100v-305h94zM995 1102h283v-1102h-283v1102zM973 1491v-242h-230v242h230zM621 1491v-242h-224v242h224z" />
    <glyph glyph-name="Aringbelow" unicode="&#x1e00;" 
d="M567 -444q49 0 84 34t35 84t-35 84.5t-84 34.5t-83 -35t-34 -84q0 -50 34 -84t83 -34zM340 -326q0 157 136 215q93 40 181 2q87 -39 126 -129t1 -177t-126 -126q-42 -18 -91 -18q-98 -1 -163 65q-64 66 -64 168zM713 551l-142 657h-4l-141 -657h287zM752 1462l387 -1462
h-308l-67 309h-389l-68 -309h-307l387 1462h365z" />
    <glyph glyph-name="aringbelow" unicode="&#x1e01;" horiz-adv-x="985" 
d="M483 -467q49 0 84 35t35 84t-35 84t-84 35t-83 -35t-34 -84t34 -84t83 -35zM256 -348q0 157 136 215q42 18 91 18q97 1 165 -67t68 -165t-68 -165t-164 -69t-162 65t-66 168zM434 164q70 0 116 39q58 45 58 131v217q-49 -39 -128 -56q-152 -33 -152 -182t106 -149z
M338 -23q-154 0 -216 90t-64 194q-2 176 63 253t215 117l160 43q63 16 88 45q24 29 24 88q-1 131 -131 131q-67 0 -99 -39t-32 -104v-31h-254v27q0 177 114 265q96 74 248 74t230 -24t121 -70q72 -75 74 -243v-580q0 -130 34 -213h-270q-14 26 -35 115h-4q-50 -86 -114 -112
t-152 -26z" />
    <glyph glyph-name="Bdotaccent" unicode="&#x1e02;" 
d="M694 1806v-241h-229v241h229zM750 438q0 219 -226 219h-127v-440h115q106 0 172 47t66 174zM397 862h84q123 0 179 44t56 148t-50 148q-51 43 -162 43h-107v-383zM596 1462q416 0 416 -370q0 -119 -56 -204t-165 -116v-4q123 -16 195 -104t71 -236q0 -296 -241 -393
q-87 -35 -216 -35h-498v1462h494z" />
    <glyph glyph-name="bdotaccent" unicode="&#x1e03;" horiz-adv-x="1024" 
d="M639 1806v-241h-229v241h229zM956 551q0 -307 -82 -440t-256 -134q-86 0 -144 31t-105 109h-4v-117h-271v1462h283v-463h4q91 133 237 131q174 0 256 -136t82 -443zM525 188q93 0 121 92t28 272t-28 270.5t-121 90.5t-121 -91t-28 -271q0 -179 28 -271t121 -92z" />
    <glyph glyph-name="Bdotbelow" unicode="&#x1e04;" 
d="M694 -92v-242h-229v242h229zM750 438q0 219 -226 219h-127v-440h115q106 0 172 47t66 174zM397 862h84q123 0 179 44t56 148t-50 148q-51 43 -162 43h-107v-383zM596 1462q416 0 416 -370q0 -119 -56 -204t-165 -116v-4q123 -16 195 -104t71 -236q0 -296 -241 -393
q-87 -35 -216 -35h-498v1462h494z" />
    <glyph glyph-name="bdotbelow" unicode="&#x1e05;" horiz-adv-x="1024" 
d="M639 -115v-241h-229v241h229zM956 551q0 -307 -82 -440t-256 -134q-86 0 -144 31t-105 109h-4v-117h-271v1462h283v-463h4q91 133 237 131q174 0 256 -136t82 -443zM525 188q93 0 121 92t28 272t-28 270.5t-121 90.5t-121 -91t-28 -271q0 -179 28 -271t121 -92z" />
    <glyph glyph-name="Blinebelow" unicode="&#x1e06;" 
d="M879 -92v-156h-596v156h596zM750 438q0 219 -226 219h-127v-440h115q106 0 172 47t66 174zM397 862h84q123 0 179 44t56 148t-50 148q-51 43 -162 43h-107v-383zM596 1462q416 0 416 -370q0 -119 -56 -204t-165 -116v-4q123 -16 195 -104t71 -236q0 -296 -241 -393
q-87 -35 -216 -35h-498v1462h494z" />
    <glyph glyph-name="blinebelow" unicode="&#x1e07;" horiz-adv-x="1024" 
d="M823 -115v-155h-596v155h596zM956 551q0 -307 -82 -440t-256 -134q-86 0 -144 31t-105 109h-4v-117h-271v1462h283v-463h4q91 133 237 131q174 0 256 -136t82 -443zM525 188q93 0 121 92t28 272t-28 270.5t-121 90.5t-121 -91t-28 -271q0 -179 28 -271t121 -92z" />
    <glyph glyph-name="Ccedillaacute" unicode="&#x1e08;" horiz-adv-x="1099" 
d="M565 1894h283l-201 -295h-192zM521 -350q63 0 93 20t29 50q0 30 -36 59t-124 -2l-45 41l97 159q-286 11 -387 220q-48 100 -62 236t-14 300t15 304q31 289 218 398q98 56 260 56t253 -51q166 -93 193 -300q11 -91 11 -171h-295q0 161 -38 233t-142 72t-142 -123t-38 -365
t11 -344q21 -193 94 -234q75 -39 156 -6q111 42 111 357h295q0 -256 -73 -390q-91 -167 -316 -189l-61 -99q45 10 90 10t82 -29q66 -52 66 -133t-66 -131t-196 -50t-200 38l39 95q59 -31 122 -31z" />
    <glyph glyph-name="ccedillaacute" unicode="&#x1e09;" horiz-adv-x="948" 
d="M510 1534h283l-201 -295h-193zM433 -350q63 0 93 20t29 50q0 30 -36 59t-124 -2l-45 41l96 159q-209 9 -294 127q-99 137 -99 447q0 469 266 553q82 27 181 26q197 0 296 -114t99 -311h-270q0 154 -62 201q-25 20 -71 20q-94 0 -125 -88t-31 -296t29 -288q31 -92 122 -90
q72 0 105 61t33 197h270q0 -198 -78 -310t-258 -130l-63 -101q115 25 177 -23q61 -48 61 -129t-66 -131t-196 -50t-200 38l39 95q59 -31 122 -31z" />
    <glyph glyph-name="Ddotaccent" unicode="&#x1e0a;" horiz-adv-x="1175" 
d="M715 1806v-241h-230v241h230zM412 217h131q78 0 125 27q94 54 111 250q9 100 9 237t-8 231q-16 190 -109 251q-50 32 -134 32h-125v-1028zM117 1462h483q286 0 394 -193q89 -159 89 -538t-108 -555t-393 -176h-465v1462z" />
    <glyph glyph-name="ddotaccent" unicode="&#x1e0b;" horiz-adv-x="1024" 
d="M612 1806v-241h-229v241h229zM659 117h-4q-47 -78 -105 -109t-144 -31q-174 -1 -256 133t-82 441t82 443t243 136t250 -131h4v463h283v-1462h-271v117zM350 551.5q0 -179.5 28 -271.5t121 -92t121 92t28 272t-28 270q-28 91 -121 91t-121 -91t-28 -270.5z" />
    <glyph glyph-name="Ddotbelow" unicode="&#x1e0c;" horiz-adv-x="1175" 
d="M715 -92v-242h-230v242h230zM412 217h131q78 0 125 27q94 54 111 250q9 100 9 237t-8 231q-16 190 -109 251q-50 32 -134 32h-125v-1028zM117 1462h483q286 0 394 -193q89 -159 89 -538t-108 -555t-393 -176h-465v1462z" />
    <glyph glyph-name="ddotbelow" unicode="&#x1e0d;" horiz-adv-x="1024" 
d="M612 -115v-241h-229v241h229zM659 117h-4q-47 -78 -105 -109t-144 -31q-174 -1 -256 133t-82 441t82 443t243 136t250 -131h4v463h283v-1462h-271v117zM350 551.5q0 -179.5 28 -271.5t121 -92t121 92t28 272t-28 270q-28 91 -121 91t-121 -91t-28 -270.5z" />
    <glyph glyph-name="Dlinebelow" unicode="&#x1e0e;" horiz-adv-x="1175" 
d="M899 -92v-156h-596v156h596zM412 217h131q78 0 125 27q94 54 111 250q9 100 9 237t-8 231q-16 190 -109 251q-50 32 -134 32h-125v-1028zM117 1462h483q286 0 394 -193q89 -159 89 -538t-108 -555t-393 -176h-465v1462z" />
    <glyph glyph-name="dlinebelow" unicode="&#x1e0f;" horiz-adv-x="1024" 
d="M797 -115v-155h-596v155h596zM659 117h-4q-47 -78 -105 -109t-144 -31q-174 -1 -256 133t-82 441t82 443t243 136t250 -131h4v463h283v-1462h-271v117zM350 551.5q0 -179.5 28 -271.5t121 -92t121 92t28 272t-28 270q-28 91 -121 91t-121 -91t-28 -270.5z" />
    <glyph glyph-name="Dcommaaccent" unicode="&#x1e10;" horiz-adv-x="1175" 
d="M709 -309q0 -142 -34 -199t-76 -82t-107 -33v115q42 8 64 46t22 85v25h-86v256h217v-213zM412 217h131q78 0 125 27q94 54 111 250q9 100 9 237t-8 231q-16 190 -109 251q-50 32 -134 32h-125v-1028zM117 1462h483q286 0 394 -193q89 -159 89 -538t-108 -555t-393 -176
h-465v1462z" />
    <glyph glyph-name="dcommaaccent" unicode="&#x1e11;" horiz-adv-x="1024" 
d="M606 -332q0 -144 -47 -221t-170 -92v115q43 8 65 46t21 85v24h-86v256h217v-213zM659 117h-4q-47 -78 -105 -109t-144 -31q-174 -1 -256 133t-82 441t82 443t243 136t250 -131h4v463h283v-1462h-271v117zM350 551.5q0 -179.5 28 -271.5t121 -92t121 92t28 272t-28 270
q-28 91 -121 91t-121 -91t-28 -270.5z" />
    <glyph glyph-name="Dcircumflexbelow" unicode="&#x1e12;" horiz-adv-x="1175" 
d="M451 -92h294l160 -295h-217l-94 174l-98 -174h-199zM412 217h131q78 0 125 27q94 54 111 250q9 100 9 237t-8 231q-16 190 -109 251q-50 32 -134 32h-125v-1028zM117 1462h483q286 0 394 -193q89 -159 89 -538t-108 -555t-393 -176h-465v1462z" />
    <glyph glyph-name="dcircumflexbelow" unicode="&#x1e13;" horiz-adv-x="1024" 
d="M348 -115h295l160 -295h-217l-94 174l-99 -174h-198zM659 117h-4q-47 -78 -105 -109t-144 -31q-174 -1 -256 133t-82 441t82 443t243 136t250 -131h4v463h283v-1462h-271v117zM350 551.5q0 -179.5 28 -271.5t121 -92t121 92t28 272t-28 270q-28 91 -121 91t-121 -91
t-28 -270.5z" />
    <glyph glyph-name="Emacrongrave" unicode="&#x1e14;" horiz-adv-x="985" 
d="M434 1812l-194 295h276l111 -295h-193zM819 1720v-155h-596v155h596zM920 1462v-241h-523v-344h492v-242h-492v-393h543v-242h-838v1462h818z" />
    <glyph glyph-name="emacrongrave" unicode="&#x1e15;" horiz-adv-x="948" 
d="M377 1491l-195 295h277l110 -295h-192zM772 1399v-156h-596v156h596zM481 938q-108 0 -138 -141q-7 -39 -7 -78v-43h289q-5 134 -25 180t-48 64t-71 18zM336 508v-88q0 -175 74 -235q27 -22 65 -21q72 0 105 51t45 156h254q-9 -193 -103 -293t-297 -101q-275 0 -366 187
q-41 84 -51 188q-9 104 -9 212q0 258 77 392q100 174 347 174t340 -152q78 -127 78 -407v-63h-559z" />
    <glyph glyph-name="Emacronacute" unicode="&#x1e16;" horiz-adv-x="985" 
d="M545 2118h282l-200 -295h-193zM819 1720v-155h-596v155h596zM920 1462v-241h-523v-344h492v-242h-492v-393h543v-242h-838v1462h818z" />
    <glyph glyph-name="emacronacute" unicode="&#x1e17;" horiz-adv-x="948" 
d="M510 1792h283l-201 -295h-193zM772 1399v-156h-596v156h596zM481 938q-108 0 -138 -141q-7 -39 -7 -78v-43h289q-5 134 -25 180t-48 64t-71 18zM336 508v-88q0 -175 74 -235q27 -22 65 -21q72 0 105 51t45 156h254q-9 -193 -103 -293t-297 -101q-275 0 -366 187
q-41 84 -51 188q-9 104 -9 212q0 258 77 392q100 174 347 174t340 -152q78 -127 78 -407v-63h-559z" />
    <glyph glyph-name="Ecircumflexbelow" unicode="&#x1e18;" horiz-adv-x="985" 
d="M371 -92h295l159 -295h-217l-94 174l-98 -174h-199zM920 1462v-241h-523v-344h492v-242h-492v-393h543v-242h-838v1462h818z" />
    <glyph glyph-name="ecircumflexbelow" unicode="&#x1e19;" horiz-adv-x="948" 
d="M324 -115h294l160 -295h-217l-94 174l-98 -174h-199zM481 938q-108 0 -138 -141q-7 -39 -7 -78v-43h289q-5 134 -25 180t-48 64t-71 18zM336 508v-88q0 -175 74 -235q27 -22 65 -21q72 0 105 51t45 156h254q-9 -193 -103 -293t-297 -101q-275 0 -366 187q-41 84 -51 188
q-9 104 -9 212q0 258 77 392q100 174 347 174t340 -152q78 -127 78 -407v-63h-559z" />
    <glyph glyph-name="Etildebelow" unicode="&#x1e1a;" horiz-adv-x="985" 
d="M634 -166q30 0 44 27t14 47h148q-10 -110 -62 -182t-129 -72q-45 0 -131 34t-112 36q-49 0 -66 -74h-137q33 254 184 254q57 0 88 -15l98 -43q31 -12 61 -12zM920 1462v-241h-523v-344h492v-242h-492v-393h543v-242h-838v1462h818z" />
    <glyph glyph-name="etildebelow" unicode="&#x1e1b;" horiz-adv-x="948" 
d="M587 -188q30 0 44 26t14 47h148q-9 -111 -61 -183t-130 -71q-52 0 -190 59q-29 11 -54 11q-49 0 -65 -74h-137q33 256 184 254q57 0 88 -14l98 -43q31 -12 61 -12zM481 938q-108 0 -138 -141q-7 -39 -7 -78v-43h289q-5 134 -25 180t-48 64t-71 18zM336 508v-88
q0 -175 74 -235q27 -22 65 -21q72 0 105 51t45 156h254q-9 -193 -103 -293t-297 -101q-275 0 -366 187q-41 84 -51 188q-9 104 -9 212q0 258 77 392q100 174 347 174t340 -152q78 -127 78 -407v-63h-559z" />
    <glyph glyph-name="Ecedillabreve" unicode="&#x1e1c;" horiz-adv-x="985" 
d="M518 1720q59 0 103 37q43 37 49 96h133q0 -107 -60 -185q-79 -105 -228 -104t-219 104q-56 82 -56 185h127q6 -59 49 -96t102 -37zM483 -210.5q-39 -0.5 -71 -12.5l-45 41l112 182h-377v1462h818v-241h-523v-344h492v-242h-492v-393h543v-242h-350l-78 -119q45 10 90 10
t82 -29q66 -52 68 -122q0 -92 -67 -142t-163 -50q-163 -1 -233 38l39 95q60 -31 122 -31t92 20t30 50t-25 50t-64 19.5z" />
    <glyph glyph-name="ecedillabreve" unicode="&#x1e1d;" horiz-adv-x="948" 
d="M471 1393q59 0 102 37t50 96h133q0 -104 -60 -186q-77 -103 -226 -103t-221 103q-56 82 -56 186h126q5 -59 49 -96t103 -37zM481 938q-108 0 -138 -141q-7 -39 -7 -78v-43h289q-5 134 -25 180t-48 64t-71 18zM53 564q0 258 77 392q100 174 347 174t340 -152
q78 -127 78 -407v-63h-559v-88q0 -175 74 -235q27 -22 65 -21q72 0 105 51t45 156h254q-7 -193 -95 -285t-247 -106l-72 -111q45 10 71 10q64 0 116 -41q52 -42 52 -122q1 -80 -66 -130t-199 -50t-197 38l39 94q58 -30 121 -30t93 20q29 20 29 50t-24 49q-25 19 -65 19
t-70 -12l-46 41l108 174q-331 20 -365 373q-9 104 -9 212z" />
    <glyph glyph-name="Fdotaccent" unicode="&#x1e1e;" horiz-adv-x="948" 
d="M625 1806v-241h-230v241h230zM102 1462h818v-241h-523v-344h492v-242h-492v-635h-295v1462z" />
    <glyph glyph-name="fdotaccent" unicode="&#x1e1f;" horiz-adv-x="606" 
d="M422 1835v-242h-229v242h229zM156 909h-144v193h144v125q0 211 172 251q55 13 127 13t147 -6v-201q-10 2 -29 2h-26q-59 0 -84 -20t-25 -68v-96h164v-193h-164v-909h-282v909z" />
    <glyph glyph-name="Gmacron" unicode="&#x1e20;" 
d="M868 1749v-156h-596v156h596zM752 1028q0 93 -30 146q-56 100 -138 100q-106 0 -154 -119t-48 -401t30 -384t70 -142t104 -40t123 63t59 171v149h-195v217h478v-788h-217v135h-5q-53 -86 -128 -122.5t-195 -36.5t-204 48q-163 91 -198 389q-16 143 -16 331q0 386 110 566
t367 180.5t363 -119.5t106 -343h-282z" />
    <glyph glyph-name="gmacron" unicode="&#x1e21;" horiz-adv-x="1024" 
d="M795 1399v-156h-596v156h596zM354 604q0 -145 5 -196q18 -179 137 -179q153 0 153 316q0 201 -32 285t-115 83q-48 0 -76 -20t-50 -82t-22 -207zM920 1102v-1047q0 -213 -106 -319t-353 -107q-180 0 -278 77q-97 77 -97 218h270q0 -77 87 -106q24 -8 51 -8q155 0 155 192
v145h-4q-43 -61 -105 -98t-130 -37q-168 0 -253 128t-85 402t58 405q81 183 288 183q59 0 123 -32q63 -33 104 -119h4v123h271z" />
    <glyph glyph-name="Hdotaccent" unicode="&#x1e22;" 
d="M684 1806v-241h-229v241h229zM102 1462h295v-559h344v559h295v-1462h-295v649h-344v-649h-295v1462z" />
    <glyph glyph-name="hdotaccent" unicode="&#x1e23;" horiz-adv-x="1024" 
d="M627 1806v-241h-230v241h230zM94 1462h283v-473h4q82 141 268 141q281 0 281 -313v-817h-283v760q0 86 -29 120t-92 33q-150 0 -149 -182v-731h-283v1462z" />
    <glyph glyph-name="Hdotbelow" unicode="&#x1e24;" 
d="M684 -92v-242h-229v242h229zM102 1462h295v-559h344v559h295v-1462h-295v649h-344v-649h-295v1462z" />
    <glyph glyph-name="hdotbelow" unicode="&#x1e25;" horiz-adv-x="1024" 
d="M627 -92v-242h-230v242h230zM94 1462h283v-473h4q82 141 268 141q281 0 281 -313v-817h-283v760q0 86 -29 120t-92 33q-150 0 -149 -182v-731h-283v1462z" />
    <glyph glyph-name="Hdieresis" unicode="&#x1e26;" 
d="M629 1806h229v-241h-229v241zM283 1806h223v-241h-223v241zM102 1462h295v-559h344v559h295v-1462h-295v649h-344v-649h-295v1462z" />
    <glyph glyph-name="hdieresis" unicode="&#x1e27;" horiz-adv-x="1024" 
d="M571 1806h230v-241h-230v241zM225 1806h224v-241h-224v241zM94 1462h283v-473h4q82 141 268 141q281 0 281 -313v-817h-283v760q0 86 -29 120t-92 33q-150 0 -149 -182v-731h-283v1462z" />
    <glyph glyph-name="Hcedilla" unicode="&#x1e28;" 
d="M93 -350q63 0 93 20t29 50q0 30 -36 59t-124 -2l-45 41l113 182h-21v1462h295v-559h344v559h295v-1462h-295v649h-344v-649h-164l-77 -119q45 10 90 10t82 -29q66 -52 66 -133t-66 -131t-196 -50t-200 38l39 95q59 -31 122 -31z" />
    <glyph glyph-name="hcedilla" unicode="&#x1e29;" horiz-adv-x="1024" 
d="M201 -280q0 30 -36 59t-124 -2l-45 41l113 182h-15v1462h283v-473h4q82 141 268 141q281 0 281 -313v-817h-283v760q0 86 -29 120t-92 33q-150 0 -149 -182v-731h-158l-78 -119q45 10 72 10t57 -10q67 -22 96 -77q15 -28 15 -64q0 -92 -67 -142t-163 -50q-163 -1 -233 38
l39 95q59 -31 121 -31t92.5 20t30.5 50z" />
    <glyph glyph-name="Hbrevebelow" unicode="&#x1e2a;" 
d="M567 -225q59 0 103 37q43 37 49 96h133q0 -106 -59 -186q-77 -103 -227 -103t-221 103q-56 82 -56 186h127q6 -59 49 -96t102 -37zM102 1462h295v-559h344v559h295v-1462h-295v649h-344v-649h-295v1462z" />
    <glyph glyph-name="hbrevebelow" unicode="&#x1e2b;" horiz-adv-x="1024" 
d="M510 -225q58 0 101.5 37t50.5 96h133q0 -104 -60 -186q-77 -103 -226 -103t-221 103q-54 80 -57 186h127q6 -59 50 -96t102 -37zM94 1462h283v-473h4q82 141 268 141q281 0 281 -313v-817h-283v760q0 86 -29 120t-92 33q-150 0 -149 -182v-731h-283v1462z" />
    <glyph glyph-name="Itildebelow" unicode="&#x1e2c;" horiz-adv-x="528" 
d="M131 -96q57 0 88 -15l98 -43q31 -12 61 -12t44 27t14 47h148q-10 -110 -62 -182t-129 -72q-45 0 -131 34t-112 36q-49 0 -66 -74h-137q33 254 184 254zM117 0v1462h295v-1462h-295z" />
    <glyph glyph-name="itildebelow" unicode="&#x1e2d;" horiz-adv-x="491" 
d="M113 -96q57 0 88 -15l98 -43q31 -12 61 -12t44 27t14 47h147q-10 -110 -61 -182t-129 -72q-47 0 -131 34t-113 36q-49 0 -65 -74h-138q33 254 185 254zM104 1479h283v-242h-283v242zM104 1102h283v-1102h-283v1102z" />
    <glyph glyph-name="Idieresisacute" unicode="&#x1e2e;" horiz-adv-x="528" 
d="M276 2204h283l-201 -295h-192zM324 1806h229v-241h-229v241zM-23 1806h224v-241h-224v241zM117 0v1462h295v-1462h-295z" />
    <glyph glyph-name="idieresisacute" unicode="&#x1e2f;" horiz-adv-x="491" 
d="M248 1849h282l-200 -295h-193zM305 1456h230v-242h-230v242zM-41 1456h223v-242h-223v242zM104 1102h283v-1102h-283v1102z" />
    </font>
</defs>
</svg>
