<?xml version="1.0" standalone="no"?>
<!DOCTYPE svg PUBLIC "-//W3C//DTD SVG 1.1//EN" "http://www.w3.org/Graphics/SVG/1.1/DTD/svg11.dtd" >
<svg xmlns="http://www.w3.org/2000/svg">
<metadata>
Created by FontPrep 20130207 at Thu Oct  6 23:09:44 2016
 By Chris McElroy
Copyright (c) 1981, 1982, 1983, 1989 and 1993, Linotype Library GmbH or its affiliated Linotype-Hell companies. All rights reserved.

The digitally encoded machine readable software for producing the Typefaces licensed to you is now the property of Heidelberger Druckmaschinen AG and its licensors, and may not be reproduced, used, displayed, modified, disclosed or transferred without the express written approval of Heidelberger Druckmaschinen AG.

Copyright (c) 1988, 1990, 1993 Adobe Systems Incorporated. All Rights Reserved.
</metadata>
<defs>
<font id="7384ecabcada72f0e077cd45d8e1c705" horiz-adv-x='1024' >
  <font-face 
    font-family="HelveticaNeue-Light"
    font-weight="300"
    font-stretch="normal"
    units-per-em="2048"
    panose-1="2 0 4 3 0 0 0 2 0 4"
    ascent="1638"
    descent="-410"
    x-height="1057"
    cap-height="1462"
    bbox="-705 -690 2552 2382"
    underline-thickness="102"
    underline-position="-153"
    unicode-range="U+0008-FB02"
  />
<missing-glyph horiz-adv-x="1024" 
d="M905 16v1016h-786v-1016h786zM102 1049h820v-1049h-820v1049z" />
    <glyph glyph-name="fi" unicode="fi" horiz-adv-x="909" 
d="M655 1462h129v-207h-129v207zM446 1354q-79 0 -101.5 -48t-22.5 -157v-92h208v-109h-208v-948h-129v948h-181v109h181v96q0 153 54 231t202 78q46 0 108 -8v-111q-75 11 -111 11zM655 1057h129v-1057h-129v1057z" />
    <glyph glyph-name="fl" unicode="fl" horiz-adv-x="909" 
d="M655 1462h129v-1462h-129v1462zM446 1354q-79 0 -101.5 -48t-22.5 -157v-92h208v-109h-208v-948h-129v948h-181v109h181v96q0 153 54 231t202 78q46 0 108 -8v-111q-75 11 -111 11z" />
    <glyph glyph-name=".notdef" horiz-adv-x="1024" 
d="M905 16v1016h-786v-1016h786zM102 1049h820v-1049h-820v1049z" />
    <glyph glyph-name=".null" horiz-adv-x="0" 
 />
    <glyph glyph-name="nonmarkingreturn" horiz-adv-x="681" 
 />
    <glyph glyph-name="controlBS" horiz-adv-x="0" 
 />
    <glyph glyph-name="controlHT" unicode="&#x9;" horiz-adv-x="569" 
 />
    <glyph glyph-name="controlCR" unicode="&#xd;" horiz-adv-x="569" 
 />
    <glyph glyph-name="controlGS" horiz-adv-x="0" 
 />
    <glyph glyph-name="space" unicode=" " horiz-adv-x="569" 
 />
    <glyph glyph-name="exclam" unicode="!" horiz-adv-x="493" 
d="M162 0v217h172v-217h-172zM178 1462h139v-436l-30 -661h-78l-31 661v436z" />
    <glyph glyph-name="quotedbl" unicode="&#x22;" horiz-adv-x="757" 
d="M451 1462h129v-497h-129v497zM178 1462h129v-497h-129v497z" />
    <glyph glyph-name="numbersign" unicode="#" horiz-adv-x="1138" 
d="M457 868l-45 -319h288l45 319h-288zM1018 457h-227l-64 -457h-102l63 457h-289l-63 -457h-103l64 457h-225v92h237l45 319h-225v93h238l63 454h102l-63 -454h289l63 454h103l-64 -454h215v-93h-227l-45 -319h215v-92z" />
    <glyph glyph-name="dollar" unicode="$" horiz-adv-x="1138" 
d="M96 1086q0 185 123 296t307 111v160h80v-160q183 0 310.5 -123.5t123.5 -320.5h-129q-2 154 -86 244.5t-219 90.5v-589q220 -45 346.5 -134.5t126.5 -281.5t-140.5 -300t-332.5 -108v-174h-80v176q-240 23 -349 141.5t-118 352.5h129q4 -352 338 -389v606
q-210 44 -320 130.5t-110 271.5zM526 1384q-211 0 -256 -112.5t-45 -188.5q0 -130 74.5 -181.5t226.5 -88.5v571zM606 78q230 0 287 109.5t57 186.5q0 135 -94.5 195t-249.5 99v-590z" />
    <glyph glyph-name="percent" unicode="%" horiz-adv-x="1820" 
d="M467 1446q86 0 148.5 -30t101.5 -82t57.5 -122.5t18.5 -152.5t-18.5 -152.5t-57.5 -123t-101.5 -82t-148.5 -29.5t-148.5 29.5t-101.5 82t-57.5 123t-18.5 152.5t18.5 152.5t57.5 122.5t101.5 82t148.5 30zM1416.5 61q166.5 0 166.5 244.5t-77.5 295t-141.5 50.5
t-105.5 -27.5t-66.5 -71.5t-34 -96.5t-9 -137t50.5 -171t217 -86.5zM1366 743q86 0 148.5 -29.5t101.5 -81.5t57.5 -123t18.5 -153t-18.5 -152.5t-57.5 -122.5t-101.5 -81t-148.5 -29t-148.5 29t-101.5 81t-57.5 122.5t-18.5 152.5t18.5 153t57.5 123t101.5 81.5t148.5 29.5
zM1317 1485h96l-926 -1553h-98zM466 1354q-64 0 -106.5 -28t-67 -72t-33.5 -96t-9 -136.5t49 -171t166 -86.5t168 87.5t51 205.5t-35 179.5t-77 89.5t-106 28z" />
    <glyph glyph-name="ampersand" unicode="&#x26;" horiz-adv-x="1251" 
d="M582 1354q-80 0 -137.5 -48.5t-57.5 -146.5t164 -289q107 68 166 133.5t59 159.5t-57 142.5t-137 48.5zM905 1098.5q0 -134.5 -287 -312.5l320 -385q27 53 35 107.5t8 138.5h129q0 -61 -17.5 -158.5t-68.5 -191.5l246 -297h-162l-156 190q-80 -100 -190 -159.5
t-222 -59.5q-210 0 -335 106.5t-125 304.5t148.5 298t209.5 133q-92 116 -136 190t-44 152t25.5 132t69.5 93t102.5 60.5t126 21.5t126 -21.5t102.5 -60.5t69.5 -93t25.5 -188.5zM517 78q210 0 355 209l-364 442q-139 -76 -219 -159.5t-80 -204.5t93.5 -204t214.5 -83z" />
    <glyph glyph-name="quotesingle" unicode="'" horiz-adv-x="569" 
d="M221 1462h129v-497h-129v497z" />
    <glyph glyph-name="parenleft" unicode="(" horiz-adv-x="493" 
d="M233 498q0 -334 101.5 -563.5t161.5 -323.5h-103q-218 362 -253.5 580.5t-35.5 353.5q0 496 289 948h103q-263 -424 -263 -995z" />
    <glyph glyph-name="parenright" unicode=")" horiz-adv-x="493" 
d="M260 604q0 426 -260 889h100q218 -362 253.5 -582.5t35.5 -353.5q0 -498 -289 -946h-100q260 426 260 993z" />
    <glyph glyph-name="asterisk" unicode="*" horiz-adv-x="720" 
d="M319 1462h80v-252l236 84l31 -75l-242 -80l147 -201l-65 -47l-150 205l-149 -205l-66 47l150 201l-236 80l29 75l235 -84v252z" />
    <glyph glyph-name="plus" unicode="+" horiz-adv-x="1228" 
d="M561 1030h109v-461h460v-108h-460v-461h-109v461h-461v108h461v461z" />
    <glyph glyph-name="comma" unicode="," horiz-adv-x="569" 
d="M371 217v-217q0 -151 -67.5 -208.5t-113.5 -70.5v89q45 14 72 76.5t23 113.5h-86v217h172z" />
    <glyph glyph-name="hyphen" unicode="-" horiz-adv-x="757" 
d="M123 504v119h512v-119h-512z" />
    <glyph glyph-name="period" unicode="." horiz-adv-x="569" 
d="M199 0v217h172v-217h-172z" />
    <glyph glyph-name="slash" unicode="/" horiz-adv-x="681" 
d="M-25 -29l629 1522h105l-625 -1522h-109z" />
    <glyph glyph-name="zero" unicode="0" horiz-adv-x="1138" 
d="M570 -29q-500 0 -500 736q0 312 73.5 457t171.5 213.5t255 68.5q283 0 391 -213.5t108 -523.5q1 -738 -499 -738zM569 1337q-123 0 -196.5 -63.5t-123.5 -187t-50 -377.5t50 -379t123.5 -188.5t196.5 -63.5t197 63.5t124 190t50 376.5t-50 376t-124 189.5t-197 63.5z" />
    <glyph glyph-name="one" unicode="1" horiz-adv-x="1138" 
d="M707 1434v-1434h-129v1065h-379v92q84 2 152.5 9.5t147 49t103.5 218.5h105z" />
    <glyph glyph-name="two" unicode="2" horiz-adv-x="1138" 
d="M1018 0h-944q4 193 110.5 314.5t238.5 208.5t207 139.5t164 142.5t89 232t-92.5 221t-244.5 79t-232 -114t-76 -285h-129q-4 229 113.5 368.5t328.5 139.5t336 -104.5t125 -299.5q0 -231 -162.5 -362t-275.5 -198.5t-223 -155.5t-130 -207h797v-119z" />
    <glyph glyph-name="three" unicode="3" horiz-adv-x="1138" 
d="M922 397q0 146 -96.5 223.5t-247.5 77.5h-109v109h109q112 0 201 67t89 197t-86.5 198t-234.5 68t-235 -99t-83 -263h-129q0 206 124 338.5t318 132.5t324.5 -92t130.5 -273q0 -117 -62.5 -202.5t-178.5 -114.5v-4q141 -23 218 -117.5t77 -218.5q0 -221 -142 -337
t-360 -116t-358 130t-123 356h129q-8 -172 89.5 -275.5t259.5 -103.5t269 86.5t107 232.5z" />
    <glyph glyph-name="four" unicode="4" horiz-adv-x="1138" 
d="M723 465v780h-4l-541 -780h545zM842 1434v-969h215v-109h-215v-356h-119v356h-662v125l664 953h117z" />
    <glyph glyph-name="five" unicode="5" horiz-adv-x="1138" 
d="M574 950q98 0 187 -36.5t185 -138t96 -315.5t-144.5 -351.5t-350.5 -137.5t-337.5 118.5t-135.5 320.5h129q4 -147 102.5 -239.5t254.5 -92.5t254.5 114.5t98.5 274.5t-103.5 267.5t-262.5 107.5q-98 0 -182 -44t-138 -126h-110l139 743h717v-119h-627l-92 -475l4 -4
q112 133 316 133z" />
    <glyph glyph-name="six" unicode="6" horiz-adv-x="1138" 
d="M557 1337q-174 0 -260 -192t-86 -449h4q51 106 154.5 172t219.5 66t203 -36t148 -99.5t95 -151.5t34 -245.5t-136.5 -294t-348.5 -136.5q-265 0 -383.5 173t-118.5 587q0 228 102 471.5t410 243.5q397 0 440 -375h-129q-16 119 -95 192.5t-253 73.5zM238 446
q0 -257 132 -312.5t218 -55.5q157 0 254.5 107t97.5 266t-93 266.5t-255 107.5t-258 -106.5t-96 -272.5z" />
    <glyph glyph-name="seven" unicode="7" horiz-adv-x="1138" 
d="M104 1415h922v-119q-347 -357 -457 -701.5t-123 -594.5h-139q24 367 161 665t429 631h-793v119z" />
    <glyph glyph-name="eight" unicode="8" horiz-adv-x="1138" 
d="M573 1337q-130 0 -220.5 -65.5t-90.5 -191.5t90.5 -194.5t216.5 -64.5q127 -4 216 64.5t89 194.5t-85.5 191.5t-215.5 65.5zM1004 1074q0 -104 -61.5 -186.5t-172.5 -115.5v-4q141 -29 217 -124.5t76 -223.5q0 -228 -140.5 -338.5t-352.5 -110.5t-353 110.5t-141 319.5
q4 141 79.5 241.5t211.5 125.5v4q-113 35 -173.5 116t-60.5 186t38 173t99.5 112t139 65.5t157.5 21.5t158 -21.5t140.5 -65.5t100.5 -112.5t38 -172.5zM934 396q0 152 -106 236.5t-259 80.5q-245 7 -304.5 -113.5t-59.5 -199.5t28.5 -140t102.5 -121.5t234 -60.5t262 83
t102 235z" />
    <glyph glyph-name="nine" unicode="9" horiz-adv-x="1138" 
d="M534 78q223 0 308.5 192t85.5 449h-4q-51 -106 -154.5 -172t-217.5 -66t-203 36t-150.5 99.5t-95 151.5t-33.5 246t137 295t348 137q265 0 383.5 -175.5t118.5 -586.5q0 -228 -77 -411.5t-197.5 -242.5t-237.5 -59q-396 0 -441 373h129q16 -119 95.5 -192.5t205.5 -73.5z
M901 969q0 257 -132 312.5t-217 55.5q-158 0 -255.5 -106t-97.5 -265t92.5 -267.5t254.5 -108.5t258.5 107.5t96.5 271.5z" />
    <glyph glyph-name="colon" unicode=":" horiz-adv-x="569" 
d="M199 0v217h172v-217h-172zM199 807v217h172v-217h-172z" />
    <glyph glyph-name="semicolon" unicode=";" horiz-adv-x="569" 
d="M199 807v217h172v-217h-172zM371 217v-217q0 -151 -67.5 -208.5t-113.5 -70.5v89q45 14 72 76.5t23 113.5h-86v217h172z" />
    <glyph glyph-name="less" unicode="&#x3c;" horiz-adv-x="1228" 
d="M1135 -14l-1041 477v110l1041 480v-113l-914 -422l914 -422v-110z" />
    <glyph glyph-name="equal" unicode="=" horiz-adv-x="1228" 
d="M1130 262h-1030v109h1030v-109zM1130 666h-1030v108h1030v-108z" />
    <glyph glyph-name="greater" unicode="&#x3e;" horiz-adv-x="1228" 
d="M1008 518l-914 422v113l1041 -480v-110l-1041 -477v110z" />
    <glyph glyph-name="question" unicode="?" horiz-adv-x="1099" 
d="M473 217h172v-217h-172v217zM111 1012q0 337 177 409t275 72q189 0 308.5 -103t119.5 -276q0 -115 -50.5 -194.5t-120.5 -147.5t-108 -104.5t-56.5 -71.5t-24.5 -85t-8 -144h-129q-4 173 36.5 248t87 122t107.5 103q137 126 137 258t-86.5 209t-206.5 77
q-163 0 -248 -105t-81 -267h-129z" />
    <glyph glyph-name="at" unicode="@" horiz-adv-x="1638" 
d="M881 1153q152 0 217 -172l51 133h108l-196 -590q-52 -170 26 -170q68 0 131.5 47.5t139.5 166.5t76 294q0 248 -169 393.5t-413 145.5q-280 0 -463.5 -193.5t-183.5 -479.5t136 -425t255.5 -190.5t227.5 -51.5q178 0 324.5 73t235.5 200h105q-94 -167 -264.5 -265
t-352.5 -98t-321 58.5t-240.5 162t-158 243.5t-56.5 301t58.5 299.5t161 239.5t239.5 159.5t289 58.5q304 0 501 -179t197 -458q0 -239 -109.5 -370.5t-194 -177.5t-154.5 -46q-141 0 -154 137h-4q-128 -135 -256 -135t-201.5 86t-73.5 202t35 221.5t98.5 190.5t153.5 137
t199 52zM872 1044q-144 0 -246 -154.5t-102 -318.5q0 -92 49 -145t121 -53t133.5 50t107.5 122.5t72.5 156.5t26.5 153t-50 129t-112 60z" />
    <glyph glyph-name="A" unicode="A" horiz-adv-x="1290" 
d="M354 573h576l-283 750zM575 1462h156l574 -1462h-150l-178 455h-666l-176 -455h-147z" />
    <glyph glyph-name="B" unicode="B" horiz-adv-x="1366" 
d="M287 821h479q160 0 245 70.5t85 177.5q0 274 -330 274h-479v-522zM147 1462h619q323 0 396 -128t73 -208q0 -141 -72 -234t-182 -116v-4q141 -18 225 -115t84 -245q0 -309 -202.5 -360.5t-321.5 -51.5h-619v1462zM766 119q385 0 385 301q0 141 -99.5 211.5t-285.5 70.5
h-479v-583h479z" />
    <glyph glyph-name="C" unicode="C" horiz-adv-x="1441" 
d="M768 1374q-274 0 -412.5 -190.5t-138.5 -452.5t139 -452.5t412 -190.5q197 0 323 134.5t146 334.5h139q-28 -270 -190 -428t-418 -158q-172 0 -302 62.5t-216 167t-129 242t-43 373.5t180 456.5t510 220.5q221 0 390 -126t198 -347h-139q-36 167 -161.5 260.5
t-287.5 93.5z" />
    <glyph glyph-name="D" unicode="D" horiz-adv-x="1402" 
d="M147 1462h506q334 -8 503 -187t169 -543.5t-169 -544t-503 -187.5h-506v1462zM287 119h297q318 0 460 142.5t142 469.5t-142 469.5t-460 142.5h-297v-1224z" />
    <glyph glyph-name="E" unicode="E" horiz-adv-x="1214" 
d="M147 1462h1010v-119h-870v-528h815v-119h-815v-577h880v-119h-1020v1462z" />
    <glyph glyph-name="F" unicode="F" horiz-adv-x="1099" 
d="M147 1462h928v-119h-788v-528h700v-119h-700v-696h-140v1462z" />
    <glyph glyph-name="G" unicode="G" horiz-adv-x="1517" 
d="M1397 0h-101l-18 266h-4q-70 -148 -204 -221.5t-304 -73.5t-300 62.5t-216 167t-129 242t-43 373.5t180 456.5t510 220.5q366 0 478 -182.5t132 -302.5h-139q-13 134 -144 250t-327 116q-274 0 -412.5 -190.5t-138.5 -452.5t139 -452.5t412 -190.5q238 0 374 148.5
t132 388.5h-498v118h621v-743z" />
    <glyph glyph-name="H" unicode="H" horiz-adv-x="1441" 
d="M147 1462h140v-635h868v635h139v-1462h-139v709h-868v-709h-140v1462z" />
    <glyph glyph-name="I" unicode="I" horiz-adv-x="454" 
d="M158 1462h139v-1462h-139v1462z" />
    <glyph glyph-name="J" unicode="J" horiz-adv-x="1024" 
d="M737 1462h140v-1054q0 -228 -98.5 -332.5t-328.5 -104.5t-318.5 136.5t-88.5 361.5h139q2 -47 6.5 -112.5t47 -167t214.5 -101.5t229.5 85.5t57.5 293.5v995z" />
    <glyph glyph-name="K" unicode="K" horiz-adv-x="1327" 
d="M147 1462h140v-786l850 786h188l-653 -604l684 -858h-180l-609 762l-280 -260v-502h-140v1462z" />
    <glyph glyph-name="L" unicode="L" horiz-adv-x="1099" 
d="M147 1462h140v-1343h819v-119h-959v1462z" />
    <glyph glyph-name="M" unicode="M" horiz-adv-x="1705" 
d="M143 1462h205l506 -1282l504 1282h205v-1462h-140v1264h-4l-499 -1264h-132l-501 1264h-4v-1264h-140v1462z" />
    <glyph glyph-name="N" unicode="N" horiz-adv-x="1441" 
d="M145 1462h156l852 -1237h4v1237h139v-1462h-155l-852 1237h-4v-1237h-140v1462z" />
    <glyph glyph-name="O" unicode="O" horiz-adv-x="1517" 
d="M759.5 88q271.5 0 410.5 190.5t139 452.5t-138.5 452.5t-411 190.5t-411.5 -189.5t-139 -453.5t139.5 -453.5t411 -189.5zM70 731.5q0 151.5 43 288.5t129 242.5t216 168t302 62.5t301 -62.5t215 -168t129 -242.5t43 -288.5t-43 -289t-129 -242t-215 -167t-301 -62.5
t-302 62.5t-216 167t-129 242t-43 289z" />
    <glyph glyph-name="P" unicode="P" horiz-adv-x="1290" 
d="M287 745h479q145 0 235.5 74t90.5 225.5t-90.5 225t-235.5 73.5h-479v-598zM147 1462h650q200 0 317 -111.5t117 -306t-117 -306t-317 -111.5h-510v-627h-140v1462z" />
    <glyph glyph-name="Q" unicode="Q" horiz-adv-x="1517" 
d="M70 731.5q0 151.5 43 288.5t129 242.5t216 168t380 62.5t430 -220.5t180 -541.5q0 -172 -55.5 -322.5t-165.5 -256.5l209 -158l-70 -86l-227 170q-150 -106 -379 -107q-172 0 -302 62.5t-216 167t-129 242t-43 289zM1309 721q0 131 -32 245.5t-98.5 206t-170 146.5
t-312.5 55t-348 -189.5t-139 -453.5t139.5 -453.5t411.5 -189.5q156 0 270 72l-192 145l71 88l213 -162q98 92 142.5 225.5t44.5 264.5z" />
    <glyph glyph-name="R" unicode="R" horiz-adv-x="1366" 
d="M287 768h520q133 0 224 78t91 210t-77.5 209.5t-237.5 77.5h-520v-575zM147 1462h670q193 0 319 -96t126 -285q0 -139 -72 -241.5t-213 -130.5v-4q195 -27 225 -151.5t33.5 -223.5t13.5 -189.5t51 -140.5h-153q-23 38 -28.5 94.5t-13.5 198.5q-9 143 -62.5 253
t-227.5 103h-528v-649h-140v1462z" />
    <glyph glyph-name="S" unicode="S" horiz-adv-x="1290" 
d="M1077 394q0 185 -301 255l-325 80q-156 40 -243 119t-87 231t115.5 283t367.5 131t406.5 -120.5t154.5 -334.5h-139q-8 159 -121.5 247.5t-277.5 88.5q-250 0 -308.5 -105t-58.5 -171q0 -112 60 -163.5t161 -74.5l357 -88q273 -70 326 -182t53 -170t-5.5 -98.5t-25 -87
t-55 -93.5t-98 -85t-155 -61.5t-294 -23.5t-361.5 127t-149 383h139q-4 -211 126.5 -302t310.5 -91t303.5 76.5t123.5 229.5z" />
    <glyph glyph-name="T" unicode="T" horiz-adv-x="1138" 
d="M-8 1462h1157v-119h-510v-1343h-139v1343h-508v119z" />
    <glyph glyph-name="U" unicode="U" horiz-adv-x="1402" 
d="M133 1462h139v-905q0 -364 164 -416.5t265 -52.5q212 0 320.5 111.5t108.5 357.5v905h140v-936q0 -244 -140 -399.5t-428 -155.5t-428.5 155.5t-140.5 399.5v936z" />
    <glyph glyph-name="V" unicode="V" horiz-adv-x="1214" 
d="M-12 1462h147l475 -1308h4l471 1308h148l-543 -1462h-162z" />
    <glyph glyph-name="W" unicode="W" horiz-adv-x="1857" 
d="M0 1462h150l331 -1280h4l357 1280h174l358 -1280h4l334 1280h139l-403 -1462h-148l-370 1309h-4l-369 -1309h-151z" />
    <glyph glyph-name="X" unicode="X" horiz-adv-x="1175" 
d="M6 1462h164l414 -612l428 612h155l-499 -712l528 -750h-168l-444 645l-451 -645h-156l525 754z" />
    <glyph glyph-name="Y" unicode="Y" horiz-adv-x="1251" 
d="M694 0h-139v602l-573 860h163l482 -741l479 741h166l-578 -860v-602z" />
    <glyph glyph-name="Z" unicode="Z" horiz-adv-x="1175" 
d="M76 1462h1052v-123l-962 -1220h983v-119h-1139v123l963 1220h-897v119z" />
    <glyph glyph-name="bracketleft" unicode="[" horiz-adv-x="493" 
d="M156 -389v1882h329v-109h-200v-1665h200v-108h-329z" />
    <glyph glyph-name="backslash" unicode="\" horiz-adv-x="681" 
d="M598 -29l-623 1522h103l631 -1522h-111z" />
    <glyph glyph-name="bracketright" unicode="]" horiz-adv-x="493" 
d="M338 1493v-1882h-330v108h201v1665h-201v109h330z" />
    <glyph glyph-name="asciicircum" unicode="^" horiz-adv-x="1228" 
d="M90 487l471 928h107l471 -928h-117l-410 799l-403 -799h-119z" />
    <glyph glyph-name="underscore" unicode="_" horiz-adv-x="1024" 
d="M0 -254v102h1024v-102h-1024z" />
    <glyph glyph-name="grave" unicode="`" horiz-adv-x="378" 
d="M-61 1493h157l215 -289h-104z" />
    <glyph glyph-name="a" unicode="a" 
d="M531 1087q397 0 397 -339v-562q0 -78 76 -77q23 0 40 8v-109q-46 -8 -89 -8q-85 0 -115.5 45.5t-30.5 138.5h-4q-78 -113 -160.5 -163t-224.5 -50q-247 0 -300.5 113.5t-53.5 209.5t49 158t130 95t182 46t174 21t135.5 21.5t62.5 130.5t-73 165t-200 48t-204.5 -58.5
t-81.5 -187.5h-129q23 354 420 354zM799 578h-4q-15 -30 -103 -46t-292.5 -42t-204.5 -182q0 -113 68.5 -171.5t154.5 -58.5q169 0 275 91.5t106 240.5v168z" />
    <glyph glyph-name="b" unicode="b" horiz-adv-x="1175" 
d="M123 1462h129v-606h4q38 108 139 169.5t225 61.5t213 -45t148 -121.5t88 -178t29 -277.5t-121.5 -335t-353.5 -159q-129 0 -230.5 59.5t-146.5 170.5h-4v-201h-119v1462zM614 979q-179 0 -270.5 -131.5t-91.5 -374.5t134 -319t232 -76t163 40t126.5 133t61.5 277.5
t-88 317.5t-267 133z" />
    <glyph glyph-name="c" unicode="c" 
d="M569 979q-174 0 -272 -135t-98 -315.5t98 -315.5t272 -135q120 0 207 85t101 216h129q-27 -193 -141.5 -300.5t-295.5 -107.5q-233 0 -366 159t-133 399t134 399t365 159q170 0 288 -90t140 -272h-129q-58 254 -299 254z" />
    <glyph glyph-name="d" unicode="d" horiz-adv-x="1175" 
d="M1053 0h-119v201h-4q-40 -103 -150 -166.5t-229 -63.5t-208 44t-148.5 121t-88 178.5t-28.5 279t123 335.5t352 158q192 0 269 -87t98 -144h4v606h129v-1462zM562 78q179 0 270.5 131.5t91.5 374.5t-134.5 319t-231.5 76t-162.5 -40t-127 -133t-61.5 -277.5t88 -317.5
t267 -133z" />
    <glyph glyph-name="e" unicode="e" 
d="M546 979q-149 0 -239 -109t-108 -268h684q-4 155 -96 266t-241 111zM199 494q0 -264 128 -340t220 -76q141 0 221 73.5t111 196.5h129q-41 -180 -150.5 -278.5t-310.5 -98.5q-241 0 -359 158t-118 394t120 400t357 164t355.5 -173.5t109.5 -419.5h-813z" />
    <glyph glyph-name="f" unicode="f" horiz-adv-x="530" 
d="M446 1354q-79 0 -101.5 -48t-22.5 -157v-92h208v-109h-208v-948h-129v948h-181v109h181v96q0 153 54 231t202 78q46 0 108 -8v-111q-75 11 -111 11z" />
    <glyph glyph-name="g" unicode="g" horiz-adv-x="1138" 
d="M1016 86q0 -372 -170 -439t-274 -67q-200 0 -326 82t-137 238h129q27 -162 141.5 -186.5t167.5 -24.5q180 0 260 102.5t80 294.5v143h-4q-45 -98 -132 -157.5t-209 -59.5q-236 0 -354 149t-118 385t126.5 388.5t350.5 152.5q170 0 243.5 -84.5t92.5 -128.5h4v183h129
v-971zM544 121q161 0 252 123t91 298t-84.5 306t-255 131t-259.5 -127.5t-89 -310.5q0 -278 129 -349t216 -71z" />
    <glyph glyph-name="h" unicode="h" horiz-adv-x="1099" 
d="M121 1462h129v-588h4q37 96 131 154.5t206 58.5q212 0 300 -102t88 -305v-680h-129v659q0 231 -95.5 275.5t-209.5 44.5t-202.5 -102t-92.5 -261v-616h-129v1462z" />
    <glyph glyph-name="i" unicode="i" horiz-adv-x="378" 
d="M125 1462h129v-207h-129v207zM125 1057h129v-1057h-129v1057z" />
    <glyph glyph-name="j" unicode="j" horiz-adv-x="378" 
d="M125 1462h129v-207h-129v207zM125 -127v1184h129v-1153q0 -138 -50.5 -215.5t-174.5 -77.5l-88 4v106q43 -5 67 -2q76 0 96.5 44t20.5 110z" />
    <glyph glyph-name="k" unicode="k" horiz-adv-x="1024" 
d="M123 1462h129v-917l586 512h172l-451 -391l481 -666h-161l-418 575l-209 -174v-401h-129v1462z" />
    <glyph glyph-name="l" unicode="l" horiz-adv-x="378" 
d="M125 1462h129v-1462h-129v1462z" />
    <glyph glyph-name="m" unicode="m" horiz-adv-x="1705" 
d="M788 717q0 262 -221 262q-159 0 -237 -107.5t-78 -281.5v-590h-129v1057h119v-178h6q108 208 346 208q104 0 189 -51t114 -155q47 104 139 155t197 51q350 0 350 -370v-717h-129v711q0 131 -55.5 199.5t-202.5 68.5t-212.5 -106t-65.5 -275v-598h-130v717z" />
    <glyph glyph-name="n" unicode="n" horiz-adv-x="1099" 
d="M121 1057h129v-183h4q37 96 131 154.5t206 58.5q212 0 300 -102t88 -305v-680h-129v659q0 231 -95.5 275.5t-209.5 44.5t-202.5 -102t-92.5 -261v-616h-129v1057z" />
    <glyph glyph-name="o" unicode="o" horiz-adv-x="1138" 
d="M569.5 979q-92.5 0 -162 -39t-115.5 -102.5t-69.5 -144.5t-23.5 -165t23.5 -164.5t69.5 -144t115.5 -102.5t162 -39t162 39t115.5 102.5t69.5 144t23.5 164.5t-23.5 165t-69.5 144.5t-115.5 102.5t-162 39zM569.5 1087q120.5 0 214 -45t157 -120.5t96 -177t32.5 -216
t-32.5 -216t-96 -177.5t-157 -120t-214 -44t-214 44t-157 120t-96 177.5t-32.5 216t32.5 216t96 177t157 120.5t214 45z" />
    <glyph glyph-name="p" unicode="p" horiz-adv-x="1175" 
d="M123 1057h119v-201h4q45 111 146.5 171t226.5 60t214 -45t148 -121.5t88 -178t29 -277.5t-121.5 -335t-353.5 -159q-195 0 -271 86t-96 144h-4v-590h-129v1446zM609 979q-184 0 -270.5 -123.5t-86.5 -327.5q0 -298 134 -374t232 -76t163 40t126.5 133t61.5 277.5
t-88 317.5t-272 133z" />
    <glyph glyph-name="q" unicode="q" horiz-adv-x="1175" 
d="M1053 -389h-129v590h-4q-39 -110 -141.5 -170t-224.5 -60t-211 44t-148.5 121t-88 178.5t-28.5 279t123 335.5t352 158q186 0 271 -89t106 -142h4v201h119v-1446zM562 78q179 0 270.5 131.5t91.5 374.5t-134.5 319t-231.5 76t-162.5 -40t-127 -133t-61.5 -277.5
t88 -317.5t267 -133z" />
    <glyph glyph-name="r" unicode="r" horiz-adv-x="645" 
d="M123 1057h119v-248h4q49 129 152.5 198.5t246.5 63.5v-129q-171 8 -282 -101t-111 -278v-563h-129v1057z" />
    <glyph glyph-name="s" unicode="s" horiz-adv-x="985" 
d="M229 791q0 -101 93.5 -132.5t126.5 -40.5l172 -38q121 -18 211 -91.5t90 -201.5q0 -158 -126 -237t-305 -79t-295 88t-133 283h130q8 -131 95 -197.5t207 -66.5t181 34.5t89 72t28 89.5q0 89 -64 131t-168 66l-166 37q-141 36 -195.5 79.5t-77 89.5t-22.5 120
q0 144 120 217t278 73q259 0 321 -126.5t66 -212.5h-129q-4 115 -81.5 173t-186.5 58t-184 -43.5t-75 -144.5z" />
    <glyph glyph-name="t" unicode="t" horiz-adv-x="606" 
d="M199 948h-185v109h185v317h129v-317h215v-109h-215v-712q0 -63 17 -99.5t79 -38.5t119 4v-108l-115 -4q-129 0 -180 50t-49 185v723z" />
    <glyph glyph-name="u" unicode="u" horiz-adv-x="1099" 
d="M492 -29q-371 0 -371 400v686h129v-688q4 -143 66.5 -217t216.5 -74t235.5 123t81.5 301v555h129v-1057h-119v190h-4q-51 -106 -148.5 -162.5t-215.5 -56.5z" />
    <glyph glyph-name="v" unicode="v" horiz-adv-x="948" 
d="M4 1057h143l332 -928h4l328 928h133l-395 -1057h-137z" />
    <glyph glyph-name="w" unicode="w" horiz-adv-x="1517" 
d="M16 1057h138l270 -905h4l258 905h145l259 -905h4l270 905h137l-340 -1057h-141l-260 889h-4l-258 -889h-142z" />
    <glyph glyph-name="x" unicode="x" horiz-adv-x="985" 
d="M412 549l-379 508h162l301 -402l295 402h161l-381 -506l412 -551h-164l-332 444l-325 -444h-160z" />
    <glyph glyph-name="y" unicode="y" horiz-adv-x="948" 
d="M222 -281q50 0 84.5 36.5t74.5 129.5l45 119l-422 1053h137l348 -901l326 901h129l-459 -1217q-60 -140 -98.5 -173.5t-78.5 -44.5t-112 -9t-87 8v109q63 -11 113 -11z" />
    <glyph glyph-name="z" unicode="z" horiz-adv-x="948" 
d="M913 109v-109h-882v104l690 844h-643v109h807v-92l-699 -856h727z" />
    <glyph glyph-name="braceleft" unicode="{" horiz-adv-x="681" 
d="M170 604q147 0 147 328v305q0 117 47.5 186.5t133.5 69.5h102v-109h-41q-84 0 -98.5 -85t-14.5 -125v-289q0 -147 -49.5 -226t-93.5 -106v-4q84 -51 113.5 -149.5t29.5 -182.5v-287q0 -144 41 -177.5t72 -33.5h41v-108h-102q-86 0 -133.5 69.5t-47.5 186.5v301
q0 328 -147 328v108z" />
    <glyph glyph-name="bar" unicode="|" horiz-adv-x="454" 
d="M174 1610h109v-2046h-109v2046z" />
    <glyph glyph-name="braceright" unicode="}" horiz-adv-x="681" 
d="M512 498q-147 0 -147 -328v-303q0 -117 -47.5 -186.5t-133.5 -69.5h-102v108h41q84 0 98.5 85t14.5 126v287q0 147 49.5 226t93.5 106v4q-84 51 -113.5 149.5t-29.5 182.5v289q0 145 -41 177.5t-72 32.5h-41v109h102q86 0 133.5 -69.5t47.5 -186.5v-303q0 -328 147 -328
v-108z" />
    <glyph glyph-name="asciitilde" unicode="~" horiz-adv-x="1228" 
d="M845 504q50 0 92 44t77 97l73 -74q-62 -89 -117.5 -132.5t-127.5 -43.5t-127.5 20.5t-108.5 46.5q-135 66 -211 66t-115.5 -44t-64.5 -97l-74 74q85 176 256 176q83 -1 189 -47t157.5 -66t101.5 -20z" />
    <glyph glyph-name="nonbreakingspace" unicode="&#xa0;" horiz-adv-x="569" 
 />
    <glyph glyph-name="exclamdown" unicode="&#xa1;" horiz-adv-x="493" 
d="M334 1057v-217h-172v217h172zM317 -389h-139v420l31 661h78l30 -661v-420z" />
    <glyph glyph-name="cent" unicode="&#xa2;" horiz-adv-x="1138" 
d="M633 -236h-80v209q-206 19 -324 175t-118 379.5t117.5 380t324.5 175.5v183h80v-179q164 -4 275 -98.5t130 -263.5h-129q-53 246 -276 254v-901q108 4 189.5 89.5t95.5 211.5h129q-25 -186 -135.5 -294t-278.5 -114v-207zM240 528q0 -166 81.5 -296t231.5 -152v895
q-151 -23 -232 -152t-81 -295z" />
    <glyph glyph-name="sterling" unicode="&#xa3;" horiz-adv-x="1138" 
d="M446 483q0 -114 -65.5 -210.5t-159.5 -168.5l4 -4q121 62 212 62t165 -28t115 -42t99 -14t121.5 33.5t106.5 81.5l66 -99q-142 -123 -287 -123q-111 0 -227 41t-182 41t-94.5 -6t-53 -16.5t-104.5 -59.5l-74 109q105 86 167 175.5t62 205.5q0 47 -16 110.5t-41 104.5
h-166v65h129q-112 181 -112 311t78 285.5t406 155.5q212 0 337 -128t121 -357h-129q0 166 -87 271t-244 105t-255 -83.5t-98 -237.5q0 -84 29.5 -144.5t51 -96.5t39.5 -81h328v-65h-291q49 -79 49 -193z" />
    <glyph glyph-name="currency" unicode="&#xa4;" horiz-adv-x="1138" 
d="M571 319q158 0 268.5 111.5t110.5 277.5t-110.5 278t-268.5 112t-268 -112t-110 -278t110 -277.5t268 -111.5zM63 712q0 177 111 312l-115 115l78 78l115 -115q137 115 314.5 115t318.5 -113l112 113l78 -78l-110 -111q114 -142 114 -319.5t-114 -319.5l110 -110l-78 -78
l-112 112q-133 -112 -313 -112t-320 114l-115 -114l-78 78l117 116q-113 140 -113 317z" />
    <glyph glyph-name="yen" unicode="&#xa5;" horiz-adv-x="1138" 
d="M225 715h217l-430 747h148l407 -747l412 747h141l-432 -747h223v-92h-268l-12 -21v-149h280v-93h-280v-360h-129v360h-277v93h277v149l-13 21h-264v92z" />
    <glyph glyph-name="brokenbar" unicode="&#xa6;" horiz-adv-x="454" 
d="M174 1354h109v-512h-109v512zM174 330h109v-510h-109v510z" />
    <glyph glyph-name="section" unicode="&#xa7;" horiz-adv-x="1138" 
d="M1047 473q0 -192 -224 -287q103 -90 103 -223t-105 -212t-260 -79t-257.5 93.5t-102.5 267.5h129q-4 -108 64.5 -180t172.5 -72q154 0 192 66.5t38 128.5t-52.5 118t-130 104t-170 93t-170 100t-130 127t-52.5 170t61 172t162 117q-102 90 -102 224t105 213t260 79
t257.5 -92t102.5 -271h-129q4 109 -64.5 181.5t-173.5 72.5q-153 0 -191 -66t-38 -130t52 -119t130 -103t170 -93.5t170 -100.5t130.5 -127t52.5 -172zM918 471q0 80 -58.5 143.5t-141.5 115.5t-173 96t-156 89q-168 -70 -168 -221q0 -78 57.5 -140t139.5 -114.5t172 -98.5
t155 -91q173 72 173 221z" />
    <glyph glyph-name="dieresis" unicode="&#xa8;" horiz-adv-x="378" 
d="M-59 1239v207h137v-207h-137zM301 1239v207h139v-207h-139z" />
    <glyph glyph-name="copyright" unicode="&#xa9;" horiz-adv-x="1638" 
d="M840 354q113 0 183.5 62.5t88.5 154.5h105q-20 -148 -126.5 -228.5t-231.5 -80.5q-230 0 -348 134t-118 336t118 335t327 133q146 0 251.5 -80t127.5 -229h-105q-18 92 -89 153.5t-168 62.5t-160.5 -27.5t-128 -106t-64.5 -243t89 -271t249 -105.5zM1462 731
q0 137 -49 256t-135 207t-204 139t-256 51t-256 -51t-204 -139t-134 -207t-48 -326t184 -395t459 -188q137 0 255 51t204 139t135 207t49 256zM1581 730q0 -161 -58.5 -299t-160.5 -240.5t-241.5 -161t-301.5 -58.5t-301 58.5t-300 219.5t-161 482q0 160 58.5 299t161 242.5
t241.5 162t301 58.5t301.5 -58.5t241.5 -162t160.5 -242.5t58.5 -300z" />
    <glyph glyph-name="ordfeminine" unicode="&#xaa;" horiz-adv-x="636" 
d="M301 1446q119 0 169 -31t71.5 -70.5t21.5 -103.5v-352q4 -47 51 -47q14 0 27 6v-70q-30 -6 -55 -6q-63 0 -81 29.5t-18 85.5h-4q-84 -133 -252 -133q-104 0 -171.5 46t-67.5 134t31.5 128t83 61.5t117 28.5t126.5 13t89 17.5t28 46.5q0 82 -53.5 109.5t-125.5 27.5
t-123.5 -35t-53.5 -108h-97q11 223 287 223zM467 1124h-4q-6 -14 -29.5 -19t-62.5 -12t-95.5 -14.5t-123 -29t-66.5 -95.5q0 -49 44 -84.5t94 -35.5q104 0 173.5 53.5t69.5 140.5v96z" />
    <glyph glyph-name="guillemotleft" unicode="&#xab;" horiz-adv-x="872" 
d="M123 500v127l272 256v-138l-192 -182l192 -182v-137zM453 500v127l272 256v-138l-193 -182l193 -182v-137z" />
    <glyph glyph-name="logicalnot" unicode="&#xac;" horiz-adv-x="1228" 
d="M1022 666h-922v108h1030v-547h-108v439z" />
    <glyph glyph-name="uni00AD" unicode="&#xad;" horiz-adv-x="757" 
d="M123 623h512v-119h-512v119z" />
    <glyph glyph-name="registered" unicode="&#xae;" horiz-adv-x="1638" 
d="M1059 928q0 151 -209 151h-199v-305h144q130 0 197 26.5t67 127.5zM1167 928q0 -207 -221 -246l262 -391h-127l-247 391h-183v-391h-108v880h338q286 0 286 -243zM818 1384q-138 0 -256 -51t-204 -139t-134 -207t-48 -326t184 -395t459 -188q137 0 255 51t204 139
t135 207t49 256t-49 256t-135 207t-204 139t-256 51zM819 1493q162 0 301.5 -58.5t241.5 -162t160.5 -242.5t58.5 -300t-58.5 -299t-160.5 -240.5t-241.5 -161t-301.5 -58.5t-301 58.5t-300 219.5t-161 482q0 160 58.5 299t161 242.5t241.5 162t301 58.5z" />
    <glyph glyph-name="macron" unicode="&#xaf;" horiz-adv-x="378" 
d="M-145 1298v93h671v-93h-671z" />
    <glyph glyph-name="degree" unicode="&#xb0;" horiz-adv-x="819" 
d="M408 936q91 0 154 62t63 153t-63.5 153t-152 62t-151.5 -61.5t-63 -153.5t61 -153.5t152 -61.5zM115 1151q0 61 22.5 114.5t62.5 93.5t94 63.5t115.5 23.5t115 -23.5t93 -63.5t63.5 -93.5t24 -114.5t-24 -115.5t-63.5 -94.5t-93 -62.5t-115 -22.5t-115.5 22.5t-94 62.5
t-62.5 94.5t-22.5 115.5z" />
    <glyph glyph-name="plusminus" unicode="&#xb1;" horiz-adv-x="1228" 
d="M100 109h1030v-109h-1030v109zM561 1030h109v-368h460v-109h-460v-369h-109v369h-459v109h459v368z" />
    <glyph glyph-name="twosuperior" unicode="&#xb2;" horiz-adv-x="681" 
d="M341 1446q144 0 229 -62.5t85 -199.5t-102.5 -210.5t-177 -115t-143.5 -89.5t-91 -128h508v-80h-618q2 100 50 166t116.5 116t145.5 93t126 89t69.5 83t20.5 84q0 82 -61 128t-133 46q-120 0 -170 -66t-50 -167h-96q-4 141 72 227t220 86z" />
    <glyph glyph-name="threesuperior" unicode="&#xb3;" horiz-adv-x="681" 
d="M276 1059h72q74 0 132.5 39.5t58.5 115.5t-60.5 114t-150.5 38t-143.5 -59.5t-51.5 -151.5h-96q2 129 80 210t211 81t220 -57t87 -170q0 -72 -41 -123.5t-117 -67.5v-4q92 -12 142.5 -68.5t50.5 -132.5q0 -137 -94 -208.5t-242 -71.5t-238 76.5t-80 224.5h97
q-4 -98 54.5 -159.5t190.5 -61.5t173.5 70.5t41.5 113.5q0 86 -66.5 129t-158.5 43h-72v80z" />
    <glyph glyph-name="acute" unicode="&#xb4;" horiz-adv-x="378" 
d="M172 1204h-104l215 289h159z" />
    <glyph glyph-name="mu" unicode="&#xb5;" horiz-adv-x="1099" 
d="M477 -29q-133 0 -225 70v-430h-131v1446h129v-688q4 -143 66.5 -217t216.5 -74t235.5 123t81.5 301v555h129v-1057h-119v190h-4q-51 -106 -148.5 -162.5t-230.5 -56.5z" />
    <glyph glyph-name="paragraph" unicode="&#xb6;" horiz-adv-x="1228" 
d="M559 672q-182 0 -303 115.5t-121 273.5q0 197 120 299t337 102h471v-1822h-129v1714h-246v-1714h-129v1032z" />
    <glyph glyph-name="periodcentered" unicode="&#xb7;" horiz-adv-x="569" 
d="M286 768q48 0 84 -37t36 -85t-37 -84t-85 -36t-84 37t-36 85t37 84t85 36z" />
    <glyph glyph-name="cedilla" unicode="&#xb8;" horiz-adv-x="378" 
d="M287 -252q0 78 -105 78q-51 0 -88 -16l-33 30l125 160h72l-90 -117q151 25 194.5 -27.5t43.5 -118.5t-69.5 -111.5t-137.5 -45.5q-125 0 -209 43l26 66q78 -29 142 -29q129 0 129 88z" />
    <glyph glyph-name="onesuperior" unicode="&#xb9;" horiz-adv-x="681" 
d="M416 1427v-866h-97v635h-247v80q131 5 187.5 29.5t74.5 121.5h82z" />
    <glyph glyph-name="ordmasculine" unicode="&#xba;" horiz-adv-x="684" 
d="M342 834q59 0 104.5 23.5t75 60t45 85t15.5 97.5t-15.5 97t-45 85t-75 60.5t-104.5 23.5t-104 -23.5t-75 -60.5t-45.5 -85t-15.5 -97t15.5 -97.5t45.5 -85t75 -60t104 -23.5zM339 1446q162 0 250.5 -98t88.5 -249t-88.5 -248t-250.5 -97t-247.5 98t-85.5 247t85.5 248
t247.5 99z" />
    <glyph glyph-name="guillemotright" unicode="&#xbb;" horiz-adv-x="872" 
d="M147 381l193 182l-193 182v138l273 -256v-127l-273 -256v137zM477 381l193 182l-193 182v138l273 -256v-127l-273 -256v137z" />
    <glyph glyph-name="onequarter" unicode="&#xbc;" horiz-adv-x="1708" 
d="M1315 285v442h-4l-332 -442h336zM1315 205h-430v80l436 581h90v-581h139v-80h-139v-205h-96v205zM442 1427v-866h-96v635h-248v80q132 5 188 30t74 121h82zM1200 1485h96l-925 -1553h-99z" />
    <glyph glyph-name="onehalf" unicode="&#xbd;" horiz-adv-x="1708" 
d="M1294 885q144 0 229 -62.5t85 -198.5t-103 -210.5t-177.5 -116t-144 -89.5t-89.5 -128h508v-80h-619q2 100 50 165.5t117 116t145.5 93.5t126.5 89t69.5 83t19.5 84q0 83 -61.5 128.5t-133.5 45.5q-218 0 -218 -234h-97q-4 141 72.5 227.5t220.5 86.5zM442 1427v-866h-96
v635h-248v80q132 5 188 30t74 121h82zM1200 1485h96l-925 -1553h-99z" />
    <glyph glyph-name="threequarters" unicode="&#xbe;" horiz-adv-x="1708" 
d="M1315 285v442h-4l-332 -442h336zM1315 205h-430v80l436 581h90v-581h139v-80h-139v-205h-96v205zM1282 1485h96l-925 -1553h-99zM276 1059h72q74 0 132.5 39.5t58.5 115.5t-60.5 114t-150.5 38t-143.5 -59.5t-51.5 -151.5h-96q2 129 80 210t211 81t220 -57t87 -170
q0 -72 -41 -123.5t-117 -67.5v-4q92 -12 142.5 -68.5t50.5 -132.5q0 -137 -94 -208.5t-242 -71.5t-238 76.5t-80 224.5h97q-4 -98 54.5 -159.5t190.5 -61.5t173.5 70.5t41.5 113.5q0 86 -66.5 129t-158.5 43h-72v80z" />
    <glyph glyph-name="questiondown" unicode="&#xbf;" horiz-adv-x="1099" 
d="M629 840h-172v217h172v-217zM991 59q0 -220 -123.5 -349.5t-341.5 -129.5q-176 0 -295.5 103t-119.5 276q0 113 50.5 193t110.5 138t90.5 87t61 64t41 80t14.5 184h129q4 -179 -44 -263t-186 -211t-138 -257t86.5 -207.5t188.5 -77.5q180 0 265.5 105t81.5 265h129z" />
    <glyph glyph-name="Agrave" unicode="&#xc0;" horiz-adv-x="1290" 
d="M393 1868h160l215 -289h-104zM354 573h576l-283 750zM575 1462h156l574 -1462h-150l-178 455h-666l-176 -455h-147z" />
    <glyph glyph-name="Aacute" unicode="&#xc1;" horiz-adv-x="1290" 
d="M629 1579h-105l215 289h160zM354 573h576l-283 750zM575 1462h156l574 -1462h-150l-178 455h-666l-176 -455h-147z" />
    <glyph glyph-name="Acircumflex" unicode="&#xc2;" horiz-adv-x="1290" 
d="M950 1579h-133l-176 209l-180 -209h-119l233 289h142zM354 573h576l-283 750zM575 1462h156l574 -1462h-150l-178 455h-666l-176 -455h-147z" />
    <glyph glyph-name="Atilde" unicode="&#xc3;" horiz-adv-x="1290" 
d="M782 1726q78 0 107 99h78q-22 -130 -80 -162.5t-110 -32.5t-141 47t-130 47t-72 -26.5t-31 -77.5h-79q8 76 56 136.5t118 60.5t133 -31t93 -45.5t58 -14.5zM354 573h576l-283 750zM575 1462h156l574 -1462h-150l-178 455h-666l-176 -455h-147z" />
    <glyph glyph-name="Adieresis" unicode="&#xc4;" horiz-adv-x="1290" 
d="M395 1614v207h140v-207h-140zM758 1614v207h139v-207h-139zM354 573h576l-283 750zM575 1462h156l574 -1462h-150l-178 455h-666l-176 -455h-147z" />
    <glyph glyph-name="Aring" unicode="&#xc5;" horiz-adv-x="1290" 
d="M508 1761.5q0 -59.5 40 -99.5t99.5 -40t99 40t39.5 99.5t-39.5 99.5t-99 40t-99.5 -40t-40 -99.5zM428 1761q0 45 17.5 85t47 70t69.5 47t85 17t85 -17t69.5 -47t47 -70t17.5 -85t-17.5 -85t-47 -69.5t-69.5 -47t-85 -17.5t-85 17.5t-69.5 47t-47 69.5t-17.5 85zM354 573
h576l-283 750zM575 1462h156l574 -1462h-150l-178 455h-666l-176 -455h-147z" />
    <glyph glyph-name="AE" unicode="&#xc6;" horiz-adv-x="1857" 
d="M911 582v761h-82l-387 -761h469zM1051 119h759v-119h-899v463h-530l-238 -463h-155l764 1462h1050v-119h-751v-528h704v-119h-704v-577z" />
    <glyph glyph-name="Ccedilla" unicode="&#xc7;" horiz-adv-x="1441" 
d="M712 -174q-52 0 -87 -16l-33 30l104 135q-295 23 -456.5 239.5t-161.5 526.5t180 531t510 221q221 0 390 -126t198 -347h-139q-36 167 -161.5 260.5t-279.5 93.5q-282 0 -420.5 -190.5t-138.5 -452.5t139 -452.5t412 -190.5q197 0 323 134.5t146 334.5h139
q-28 -270 -190 -428t-418 -158h-2l-68 -88q153 25 195.5 -27.5t42.5 -118.5t-69.5 -111.5t-137.5 -45.5q-123 0 -211 43l29 66q78 -29 142 -29q128 0 128 88q-1 78 -105 78z" />
    <glyph glyph-name="Egrave" unicode="&#xc8;" horiz-adv-x="1214" 
d="M354 1868h160l215 -289h-104zM147 1462h1010v-119h-870v-528h815v-119h-815v-577h880v-119h-1020v1462z" />
    <glyph glyph-name="Eacute" unicode="&#xc9;" horiz-adv-x="1214" 
d="M590 1579h-105l215 289h160zM147 1462h1010v-119h-870v-528h815v-119h-815v-577h880v-119h-1020v1462z" />
    <glyph glyph-name="Ecircumflex" unicode="&#xca;" horiz-adv-x="1214" 
d="M911 1579h-133l-176 209l-180 -209h-119l234 289h141zM147 1462h1010v-119h-870v-528h815v-119h-815v-577h880v-119h-1020v1462z" />
    <glyph glyph-name="Edieresis" unicode="&#xcb;" horiz-adv-x="1214" 
d="M356 1614v207h140v-207h-140zM719 1614v207h139v-207h-139zM147 1462h1010v-119h-870v-528h815v-119h-815v-577h880v-119h-1020v1462z" />
    <glyph glyph-name="Igrave" unicode="&#xcc;" horiz-adv-x="454" 
d="M-23 1868h158l215 -289h-104zM158 1462h139v-1462h-139v1462z" />
    <glyph glyph-name="Iacute" unicode="&#xcd;" horiz-adv-x="454" 
d="M211 1579h-105l216 289h159zM158 1462h139v-1462h-139v1462z" />
    <glyph glyph-name="Icircumflex" unicode="&#xce;" horiz-adv-x="454" 
d="M532 1579h-133l-176 209l-180 -209h-117l232 289h141zM158 1462h139v-1462h-139v1462z" />
    <glyph glyph-name="Idieresis" unicode="&#xcf;" horiz-adv-x="454" 
d="M-20 1614v207h137v-207h-137zM340 1614v207h139v-207h-139zM158 1462h139v-1462h-139v1462z" />
    <glyph glyph-name="Eth" unicode="&#xd0;" horiz-adv-x="1402" 
d="M147 1462h506q334 -8 503 -187t169 -543.5t-169 -544t-503 -187.5h-506v713h-147v92h147v657zM287 805h483v-92h-483v-594h297q318 0 460 142.5t142 469.5t-142 469.5t-460 142.5h-297v-538z" />
    <glyph glyph-name="Ntilde" unicode="&#xd1;" horiz-adv-x="1441" 
d="M582 1724q-42 0 -72.5 -26.5t-30.5 -77.5h-80q8 75 57 136t118 61t132.5 -31t93 -45.5t67.5 -14.5q67 0 98 99h77q-22 -130 -79.5 -162.5t-110.5 -32.5t-140.5 47t-129.5 47zM145 1462h156l852 -1237h4v1237h139v-1462h-155l-852 1237h-4v-1237h-140v1462z" />
    <glyph glyph-name="Ograve" unicode="&#xd2;" horiz-adv-x="1517" 
d="M506 1868h160l215 -289h-105zM759.5 88q271.5 0 410.5 190.5t139 452.5t-138.5 452.5t-411 190.5t-411.5 -189.5t-139 -453.5t139.5 -453.5t411 -189.5zM70 731.5q0 151.5 43 288.5t129 242.5t216 168t302 62.5t301 -62.5t215 -168t129 -242.5t43 -288.5t-43 -289
t-129 -242t-215 -167t-301 -62.5t-302 62.5t-216 167t-129 242t-43 289z" />
    <glyph glyph-name="Oacute" unicode="&#xd3;" horiz-adv-x="1517" 
d="M741 1579h-104l215 289h160zM759.5 88q271.5 0 410.5 190.5t139 452.5t-138.5 452.5t-411 190.5t-411.5 -189.5t-139 -453.5t139.5 -453.5t411 -189.5zM70 731.5q0 151.5 43 288.5t129 242.5t216 168t302 62.5t301 -62.5t215 -168t129 -242.5t43 -288.5t-43 -289
t-129 -242t-215 -167t-301 -62.5t-302 62.5t-216 167t-129 242t-43 289z" />
    <glyph glyph-name="Ocircumflex" unicode="&#xd4;" horiz-adv-x="1517" 
d="M1063 1579h-133l-176 209l-181 -209h-118l233 289h141zM759.5 88q271.5 0 410.5 190.5t139 452.5t-138.5 452.5t-411 190.5t-411.5 -189.5t-139 -453.5t139.5 -453.5t411 -189.5zM70 731.5q0 151.5 43 288.5t129 242.5t216 168t302 62.5t301 -62.5t215 -168t129 -242.5
t43 -288.5t-43 -289t-129 -242t-215 -167t-301 -62.5t-302 62.5t-216 167t-129 242t-43 289z" />
    <glyph glyph-name="Otilde" unicode="&#xd5;" horiz-adv-x="1517" 
d="M895 1726q77 0 106 99h78q-22 -130 -79.5 -162.5t-110.5 -32.5t-140 47t-129 47t-73 -26.5t-31 -77.5h-80q8 75 57 136t118 61t132.5 -31t93 -45.5t58.5 -14.5zM759.5 88q271.5 0 410.5 190.5t139 452.5t-138.5 452.5t-411 190.5t-411.5 -189.5t-139 -453.5t139.5 -453.5
t411 -189.5zM70 731.5q0 151.5 43 288.5t129 242.5t216 168t302 62.5t301 -62.5t215 -168t129 -242.5t43 -288.5t-43 -289t-129 -242t-215 -167t-301 -62.5t-302 62.5t-216 167t-129 242t-43 289z" />
    <glyph glyph-name="Odieresis" unicode="&#xd6;" horiz-adv-x="1517" 
d="M508 1614v207h139v-207h-139zM870 1614v207h140v-207h-140zM759.5 88q271.5 0 410.5 190.5t139 452.5t-138.5 452.5t-411 190.5t-411.5 -189.5t-139 -453.5t139.5 -453.5t411 -189.5zM70 731.5q0 151.5 43 288.5t129 242.5t216 168t302 62.5t301 -62.5t215 -168
t129 -242.5t43 -288.5t-43 -289t-129 -242t-215 -167t-301 -62.5t-302 62.5t-216 167t-129 242t-43 289z" />
    <glyph glyph-name="multiply" unicode="&#xd7;" horiz-adv-x="1228" 
d="M152 901l75 76l387 -387l387 387l76 -76l-387 -387l387 -387l-76 -76l-387 385l-387 -385l-75 76l385 387z" />
    <glyph glyph-name="Oslash" unicode="&#xd8;" horiz-adv-x="1517" 
d="M1448 733q0 -324 -180.5 -543t-507.5 -219q-292 0 -473 181l-156 -175l-55 50l162 180q-168 207 -168 526t180 539.5t510 220.5q291 0 471 -180l145 160l54 -48l-150 -165q168 -203 168 -527zM209 735q0 -260 119 -428l815 907q-147 160 -383 160q-273 0 -412 -189.5
t-139 -449.5zM1309 728q0 260 -121 429l-813 -907q145 -162 401 -162t394.5 190t138.5 450z" />
    <glyph glyph-name="Ugrave" unicode="&#xd9;" horiz-adv-x="1402" 
d="M449 1868h159l215 -289h-104zM133 1462h139v-905q0 -364 164 -416.5t265 -52.5q212 0 320.5 111.5t108.5 357.5v905h140v-936q0 -244 -140 -399.5t-428 -155.5t-428.5 155.5t-140.5 399.5v936z" />
    <glyph glyph-name="Uacute" unicode="&#xda;" horiz-adv-x="1402" 
d="M684 1579h-104l215 289h159zM133 1462h139v-905q0 -364 164 -416.5t265 -52.5q212 0 320.5 111.5t108.5 357.5v905h140v-936q0 -244 -140 -399.5t-428 -155.5t-428.5 155.5t-140.5 399.5v936z" />
    <glyph glyph-name="Ucircumflex" unicode="&#xdb;" horiz-adv-x="1402" 
d="M1006 1579h-134l-176 209l-180 -209h-119l234 289h141zM133 1462h139v-905q0 -364 164 -416.5t265 -52.5q212 0 320.5 111.5t108.5 357.5v905h140v-936q0 -244 -140 -399.5t-428 -155.5t-428.5 155.5t-140.5 399.5v936z" />
    <glyph glyph-name="Udieresis" unicode="&#xdc;" horiz-adv-x="1402" 
d="M451 1614v207h139v-207h-139zM813 1614v207h139v-207h-139zM133 1462h139v-905q0 -364 164 -416.5t265 -52.5q212 0 320.5 111.5t108.5 357.5v905h140v-936q0 -244 -140 -399.5t-428 -155.5t-428.5 155.5t-140.5 399.5v936z" />
    <glyph glyph-name="Yacute" unicode="&#xdd;" horiz-adv-x="1251" 
d="M608 1579h-104l215 289h160zM694 0h-139v602l-573 860h163l482 -741l479 741h166l-578 -860v-602z" />
    <glyph glyph-name="Thorn" unicode="&#xde;" horiz-adv-x="1290" 
d="M287 506h479q145 0 235.5 73.5t90.5 225t-90.5 225.5t-235.5 74h-479v-598zM147 1462h140v-239h510q199 0 316.5 -111.5t117.5 -306.5t-117 -306.5t-317 -111.5h-510v-387h-140v1462z" />
    <glyph glyph-name="germandbls" unicode="&#xdf;" horiz-adv-x="1099" 
d="M879 420q0 281 -167 307.5t-261 26.5v108q245 0 299.5 93.5t54.5 161.5q0 123 -78 195t-212 72q-261 0 -261 -299v-1085h-129v1096q0 196 109.5 296.5t289.5 100.5t295 -96.5t115 -263.5q0 -111 -60.5 -197t-171.5 -111v-4q143 -12 224.5 -121.5t81.5 -239.5
q0 -233 -124.5 -351.5t-330.5 -122.5h-51q-23 0 -51 4v110q51 -8 105 -8q133 0 228 82.5t95 245.5z" />
    <glyph glyph-name="agrave" unicode="&#xe0;" 
d="M279 1493h159l215 -289h-104zM531 1087q397 0 397 -339v-562q0 -78 76 -77q23 0 40 8v-109q-46 -8 -89 -8q-85 0 -115.5 45.5t-30.5 138.5h-4q-78 -113 -160.5 -163t-224.5 -50q-247 0 -300.5 113.5t-53.5 209.5t49 158t130 95t182 46t174 21t135.5 21.5t62.5 130.5
t-73 165t-200 48t-204.5 -58.5t-81.5 -187.5h-129q23 354 420 354zM799 578h-4q-15 -30 -103 -46t-292.5 -42t-204.5 -182q0 -113 68.5 -171.5t154.5 -58.5q169 0 275 91.5t106 240.5v168z" />
    <glyph glyph-name="aacute" unicode="&#xe1;" 
d="M514 1204h-104l215 289h159zM531 1087q397 0 397 -339v-562q0 -78 76 -77q23 0 40 8v-109q-46 -8 -89 -8q-85 0 -115.5 45.5t-30.5 138.5h-4q-78 -113 -160.5 -163t-224.5 -50q-247 0 -300.5 113.5t-53.5 209.5t49 158t130 95t182 46t174 21t135.5 21.5t62.5 130.5
t-73 165t-200 48t-204.5 -58.5t-81.5 -187.5h-129q23 354 420 354zM799 578h-4q-15 -30 -103 -46t-292.5 -42t-204.5 -182q0 -113 68.5 -171.5t154.5 -58.5q169 0 275 91.5t106 240.5v168z" />
    <glyph glyph-name="acircumflex" unicode="&#xe2;" 
d="M836 1204h-134l-176 209l-180 -209h-119l234 289h141zM531 1087q397 0 397 -339v-562q0 -78 76 -77q23 0 40 8v-109q-46 -8 -89 -8q-85 0 -115.5 45.5t-30.5 138.5h-4q-78 -113 -160.5 -163t-224.5 -50q-247 0 -300.5 113.5t-53.5 209.5t49 158t130 95t182 46t174 21
t135.5 21.5t62.5 130.5t-73 165t-200 48t-204.5 -58.5t-81.5 -187.5h-129q23 354 420 354zM799 578h-4q-15 -30 -103 -46t-292.5 -42t-204.5 -182q0 -113 68.5 -171.5t154.5 -58.5q169 0 275 91.5t106 240.5v168z" />
    <glyph glyph-name="atilde" unicode="&#xe3;" 
d="M668 1352q77 0 106 98h78q-22 -129 -79.5 -162t-110 -33t-142.5 47.5t-130 47.5t-70.5 -27t-30.5 -78h-80q8 77 57.5 137t117.5 60t132 -31t93.5 -45t58.5 -14zM531 1087q397 0 397 -339v-562q0 -78 76 -77q23 0 40 8v-109q-46 -8 -89 -8q-85 0 -115.5 45.5t-30.5 138.5
h-4q-78 -113 -160.5 -163t-224.5 -50q-247 0 -300.5 113.5t-53.5 209.5t49 158t130 95t182 46t174 21t135.5 21.5t62.5 130.5t-73 165t-200 48t-204.5 -58.5t-81.5 -187.5h-129q23 354 420 354zM799 578h-4q-15 -30 -103 -46t-292.5 -42t-204.5 -182q0 -113 68.5 -171.5
t154.5 -58.5q169 0 275 91.5t106 240.5v168z" />
    <glyph glyph-name="adieresis" unicode="&#xe4;" 
d="M281 1239v207h139v-207h-139zM643 1239v207h139v-207h-139zM531 1087q397 0 397 -339v-562q0 -78 76 -77q23 0 40 8v-109q-46 -8 -89 -8q-85 0 -115.5 45.5t-30.5 138.5h-4q-78 -113 -160.5 -163t-224.5 -50q-247 0 -300.5 113.5t-53.5 209.5t49 158t130 95t182 46
t174 21t135.5 21.5t62.5 130.5t-73 165t-200 48t-204.5 -58.5t-81.5 -187.5h-129q23 354 420 354zM799 578h-4q-15 -30 -103 -46t-292.5 -42t-204.5 -182q0 -113 68.5 -171.5t154.5 -58.5q169 0 275 91.5t106 240.5v168z" />
    <glyph glyph-name="aring" unicode="&#xe5;" 
d="M393 1386.5q0 -59.5 40 -99.5t99.5 -40t99.5 40t40 99.5t-40 99.5t-99.5 40t-99.5 -40t-40 -99.5zM313 1386.5q0 45.5 17.5 85t47.5 69.5t69.5 47.5t85 17.5t85 -17.5t69.5 -47.5t47.5 -69.5t17.5 -85t-17.5 -85t-47.5 -69.5t-69.5 -47.5t-85 -17.5t-85 17.5t-69.5 47.5
t-47.5 69.5t-17.5 85zM531 1087q397 0 397 -339v-562q0 -78 76 -77q23 0 40 8v-109q-46 -8 -89 -8q-85 0 -115.5 45.5t-30.5 138.5h-4q-78 -113 -160.5 -163t-224.5 -50q-247 0 -300.5 113.5t-53.5 209.5t49 158t130 95t182 46t174 21t135.5 21.5t62.5 130.5t-73 165
t-200 48t-204.5 -58.5t-81.5 -187.5h-129q23 354 420 354zM799 578h-4q-15 -30 -103 -46t-292.5 -42t-204.5 -182q0 -113 68.5 -171.5t154.5 -58.5q169 0 275 91.5t106 240.5v168z" />
    <glyph glyph-name="ae" unicode="&#xe6;" horiz-adv-x="1781" 
d="M539 1087q216 0 279 -75.5t73 -143.5h4q38 106 142.5 162.5t231.5 56.5q239 0 346 -167t107 -426h-794q-13 -180 77 -298t267 -118q252 0 313 264h129q-41 -180 -157.5 -275.5t-303.5 -95.5q-295 0 -387 265h-4q-22 -125 -155 -195t-287 -70q-247 0 -300.5 113.5
t-53.5 209.5t49 158t130 95t182 46t174 21t135.5 21.5t62.5 130.5t-73 165t-200 48t-204.5 -58.5t-81.5 -187.5h-129q23 354 428 354zM799 578h-4q-15 -30 -103 -46t-292.5 -42t-204.5 -182q0 -113 68.5 -171.5t154.5 -58.5q169 0 275 91.5t106 240.5v168zM1593 602
q0 152 -93 264.5t-244 112.5t-241.5 -110.5t-86.5 -266.5h665z" />
    <glyph glyph-name="ccedilla" unicode="&#xe7;" 
d="M629 -252q0 78 -105 78q-51 0 -88 -16l-33 30l105 135q-205 23 -321.5 177t-116.5 386t134 390.5t365 158.5q170 0 288 -90t140 -272h-129q-58 254 -299 254q-174 0 -272 -135t-98 -315.5t98 -315.5t272 -135q120 0 207 85t101 216h129q-27 -193 -140.5 -298.5
t-287.5 -109.5l-68 -88q151 25 194.5 -27.5t43.5 -118.5t-69.5 -111.5t-137.5 -45.5q-123 0 -211 43l28 66q78 -29 142 -29q129 0 129 88z" />
    <glyph glyph-name="egrave" unicode="&#xe8;" 
d="M279 1493h159l215 -289h-104zM546 979q-149 0 -239 -109t-108 -268h684q-4 155 -96 266t-241 111zM199 494q0 -264 128 -340t220 -76q141 0 221 73.5t111 196.5h129q-41 -180 -150.5 -278.5t-310.5 -98.5q-241 0 -359 158t-118 394t120 400t357 164t355.5 -173.5
t109.5 -419.5h-813z" />
    <glyph glyph-name="eacute" unicode="&#xe9;" 
d="M514 1204h-104l215 289h159zM546 979q-149 0 -239 -109t-108 -268h684q-4 155 -96 266t-241 111zM199 494q0 -264 128 -340t220 -76q141 0 221 73.5t111 196.5h129q-41 -180 -150.5 -278.5t-310.5 -98.5q-241 0 -359 158t-118 394t120 400t357 164t355.5 -173.5
t109.5 -419.5h-813z" />
    <glyph glyph-name="ecircumflex" unicode="&#xea;" 
d="M836 1204h-134l-176 209l-180 -209h-119l234 289h141zM546 979q-149 0 -239 -109t-108 -268h684q-4 155 -96 266t-241 111zM199 494q0 -264 128 -340t220 -76q141 0 221 73.5t111 196.5h129q-41 -180 -150.5 -278.5t-310.5 -98.5q-241 0 -359 158t-118 394t120 400
t357 164t355.5 -173.5t109.5 -419.5h-813z" />
    <glyph glyph-name="edieresis" unicode="&#xeb;" 
d="M281 1239v207h139v-207h-139zM643 1239v207h139v-207h-139zM546 979q-149 0 -239 -109t-108 -268h684q-4 155 -96 266t-241 111zM199 494q0 -264 128 -340t220 -76q141 0 221 73.5t111 196.5h129q-41 -180 -150.5 -278.5t-310.5 -98.5q-241 0 -359 158t-118 394t120 400
t357 164t355.5 -173.5t109.5 -419.5h-813z" />
    <glyph glyph-name="igrave" unicode="&#xec;" horiz-adv-x="378" 
d="M-61 1493h157l215 -289h-104zM125 0v1057h129v-1057h-129z" />
    <glyph glyph-name="iacute" unicode="&#xed;" horiz-adv-x="378" 
d="M172 1204h-104l215 289h159zM125 0v1057h129v-1057h-129z" />
    <glyph glyph-name="icircumflex" unicode="&#xee;" horiz-adv-x="378" 
d="M494 1204h-134l-176 209l-180 -209h-117l232 289h141zM125 0v1057h129v-1057h-129z" />
    <glyph glyph-name="idieresis" unicode="&#xef;" horiz-adv-x="378" 
d="M-59 1239v207h137v-207h-137zM301 1239v207h139v-207h-139zM125 0v1057h129v-1057h-129z" />
    <glyph glyph-name="eth" unicode="&#xf0;" horiz-adv-x="1138" 
d="M1057 528q0 -243 -128.5 -400t-371.5 -157t-365 149.5t-122 381.5t130 383t339 151t288 -82h4q-95 182 -272 322l-215 -121l-68 66l205 114q-108 71 -190 113l74 72q134 -73 213 -131l233 131l68 -66l-224 -125q402 -327 402 -801zM560 78q178 0 273 119.5t95 301.5
t-89.5 305.5t-274 123.5t-275 -118.5t-90.5 -302.5t91.5 -306.5t269.5 -122.5z" />
    <glyph glyph-name="ntilde" unicode="&#xf1;" horiz-adv-x="1099" 
d="M410 1350q-40 0 -71.5 -27t-31.5 -78h-80q8 77 57.5 137t117.5 60t132 -31t93.5 -45t67.5 -14q67 0 98 98h77q-22 -130 -79.5 -162.5t-110.5 -32.5t-141.5 47.5t-128.5 47.5zM121 1057h129v-183h4q37 96 131 154.5t206 58.5q212 0 300 -102t88 -305v-680h-129v659
q0 231 -95.5 275.5t-209.5 44.5t-202.5 -102t-92.5 -261v-616h-129v1057z" />
    <glyph glyph-name="ograve" unicode="&#xf2;" horiz-adv-x="1138" 
d="M317 1493h160l215 -289h-104zM569.5 979q-92.5 0 -162 -39t-115.5 -102.5t-69.5 -144.5t-23.5 -165t23.5 -164.5t69.5 -144t115.5 -102.5t162 -39t162 39t115.5 102.5t69.5 144t23.5 164.5t-23.5 165t-69.5 144.5t-115.5 102.5t-162 39zM569.5 1087q120.5 0 214 -45
t157 -120.5t96 -177t32.5 -216t-32.5 -216t-96 -177.5t-157 -120t-214 -44t-214 44t-157 120t-96 177.5t-32.5 216t32.5 216t96 177t157 120.5t214 45z" />
    <glyph glyph-name="oacute" unicode="&#xf3;" horiz-adv-x="1138" 
d="M553 1204h-104l215 289h159zM569.5 979q-92.5 0 -162 -39t-115.5 -102.5t-69.5 -144.5t-23.5 -165t23.5 -164.5t69.5 -144t115.5 -102.5t162 -39t162 39t115.5 102.5t69.5 144t23.5 164.5t-23.5 165t-69.5 144.5t-115.5 102.5t-162 39zM569.5 1087q120.5 0 214 -45
t157 -120.5t96 -177t32.5 -216t-32.5 -216t-96 -177.5t-157 -120t-214 -44t-214 44t-157 120t-96 177.5t-32.5 216t32.5 216t96 177t157 120.5t214 45z" />
    <glyph glyph-name="ocircumflex" unicode="&#xf4;" horiz-adv-x="1138" 
d="M874 1204h-133l-176 209l-180 -209h-119l234 289h141zM569.5 979q-92.5 0 -162 -39t-115.5 -102.5t-69.5 -144.5t-23.5 -165t23.5 -164.5t69.5 -144t115.5 -102.5t162 -39t162 39t115.5 102.5t69.5 144t23.5 164.5t-23.5 165t-69.5 144.5t-115.5 102.5t-162 39z
M569.5 1087q120.5 0 214 -45t157 -120.5t96 -177t32.5 -216t-32.5 -216t-96 -177.5t-157 -120t-214 -44t-214 44t-157 120t-96 177.5t-32.5 216t32.5 216t96 177t157 120.5t214 45z" />
    <glyph glyph-name="otilde" unicode="&#xf5;" horiz-adv-x="1138" 
d="M707 1352q77 0 106 98h78q-22 -129 -79.5 -162t-110 -33t-142.5 47.5t-130 47.5t-70.5 -27t-30.5 -78h-80q8 77 58 137t118 60t131 -31t93 -45t59 -14zM569.5 979q-92.5 0 -162 -39t-115.5 -102.5t-69.5 -144.5t-23.5 -165t23.5 -164.5t69.5 -144t115.5 -102.5t162 -39
t162 39t115.5 102.5t69.5 144t23.5 164.5t-23.5 165t-69.5 144.5t-115.5 102.5t-162 39zM569.5 1087q120.5 0 214 -45t157 -120.5t96 -177t32.5 -216t-32.5 -216t-96 -177.5t-157 -120t-214 -44t-214 44t-157 120t-96 177.5t-32.5 216t32.5 216t96 177t157 120.5t214 45z
" />
    <glyph glyph-name="odieresis" unicode="&#xf6;" horiz-adv-x="1138" 
d="M319 1239v207h140v-207h-140zM682 1239v207h139v-207h-139zM569.5 979q-92.5 0 -162 -39t-115.5 -102.5t-69.5 -144.5t-23.5 -165t23.5 -164.5t69.5 -144t115.5 -102.5t162 -39t162 39t115.5 102.5t69.5 144t23.5 164.5t-23.5 165t-69.5 144.5t-115.5 102.5t-162 39z
M569.5 1087q120.5 0 214 -45t157 -120.5t96 -177t32.5 -216t-32.5 -216t-96 -177.5t-157 -120t-214 -44t-214 44t-157 120t-96 177.5t-32.5 216t32.5 216t96 177t157 120.5t214 45z" />
    <glyph glyph-name="divide" unicode="&#xf7;" horiz-adv-x="1228" 
d="M500 102.5q0 47.5 33.5 81t81 33.5t81 -33.5t33.5 -79.5t-33.5 -80t-79.5 -34t-81 32.5t-35 80zM500 928q0 47 33.5 80.5t81 33.5t81 -33.5t33.5 -78.5t-33.5 -81t-79.5 -36t-81 34t-35 81zM100 461v108h1030v-108h-1030z" />
    <glyph glyph-name="oslash" unicode="&#xf8;" horiz-adv-x="1138" 
d="M1069 516q0 -228 -133 -386.5t-357 -158.5t-354 138l-121 -129l-45 38l125 138q-114 148 -114 380t134 391.5t359 159.5t355 -139l106 115l45 -41l-111 -121q111 -157 111 -385zM576 78q169 0 266.5 135t97.5 304t-72 286l-559 -604q98 -121 267 -121zM562 979
q-168 0 -265.5 -135t-97.5 -306t73 -286l559 604q-101 123 -269 123z" />
    <glyph glyph-name="ugrave" unicode="&#xf9;" horiz-adv-x="1099" 
d="M297 1493h160l215 -289h-105zM492 -29q-371 0 -371 400v686h129v-688q4 -143 66.5 -217t216.5 -74t235.5 123t81.5 301v555h129v-1057h-119v190h-4q-51 -106 -148.5 -162.5t-215.5 -56.5z" />
    <glyph glyph-name="uacute" unicode="&#xfa;" horiz-adv-x="1099" 
d="M532 1204h-104l215 289h160zM492 -29q-371 0 -371 400v686h129v-688q4 -143 66.5 -217t216.5 -74t235.5 123t81.5 301v555h129v-1057h-119v190h-4q-51 -106 -148.5 -162.5t-215.5 -56.5z" />
    <glyph glyph-name="ucircumflex" unicode="&#xfb;" horiz-adv-x="1099" 
d="M854 1204h-133l-176 209l-180 -209h-119l233 289h142zM492 -29q-371 0 -371 400v686h129v-688q4 -143 66.5 -217t216.5 -74t235.5 123t81.5 301v555h129v-1057h-119v190h-4q-51 -106 -148.5 -162.5t-215.5 -56.5z" />
    <glyph glyph-name="udieresis" unicode="&#xfc;" horiz-adv-x="1099" 
d="M299 1239v207h139v-207h-139zM662 1239v207h139v-207h-139zM492 -29q-371 0 -371 400v686h129v-688q4 -143 66.5 -217t216.5 -74t235.5 123t81.5 301v555h129v-1057h-119v190h-4q-51 -106 -148.5 -162.5t-215.5 -56.5z" />
    <glyph glyph-name="yacute" unicode="&#xfd;" horiz-adv-x="948" 
d="M457 1204h-105l215 289h160zM222 -281q50 0 84.5 36.5t74.5 129.5l45 119l-422 1053h137l348 -901l326 901h129l-459 -1217q-60 -140 -98.5 -173.5t-78.5 -44.5t-112 -9t-87 8v109q63 -11 113 -11z" />
    <glyph glyph-name="thorn" unicode="&#xfe;" horiz-adv-x="1175" 
d="M123 1462h129v-606h4q38 108 139 169.5t225 61.5t213 -45t148 -121.5t88 -178t29 -277.5t-121.5 -335t-353.5 -159q-195 0 -271 86t-96 144h-4v-590h-129v1851zM614 979q-179 0 -270.5 -131.5t-91.5 -374.5t134 -319t232 -76t163 40t126.5 133t61.5 277.5t-88 317.5
t-267 133z" />
    <glyph glyph-name="ydieresis" unicode="&#xff;" horiz-adv-x="948" 
d="M223 1239v207h139v-207h-139zM586 1239v207h139v-207h-139zM222 -281q50 0 84.5 36.5t74.5 129.5l45 119l-422 1053h137l348 -901l326 901h129l-459 -1217q-60 -140 -98.5 -173.5t-78.5 -44.5t-112 -9t-87 8v109q63 -11 113 -11z" />
    <glyph glyph-name="Amacron" unicode="&#x100;" horiz-adv-x="1290" 
d="M309 1657h672v-92h-672v92zM354 573h576l-283 750zM575 1462h156l574 -1462h-150l-178 455h-666l-176 -455h-147z" />
    <glyph glyph-name="amacron" unicode="&#x101;" 
d="M219 1290h672v-92h-672v92zM531 1087q397 0 397 -339v-562q0 -78 76 -77q23 0 40 8v-109q-46 -8 -89 -8q-122 0 -141 110q-5 34 -5 74h-4q-79 -114 -159 -163t-226 -50q-245 0 -327 169q-27 58 -27 154t49 158t130 95t182 46t174 21t104 14q92 19 93 126q2 185 -168 216
q-50 9 -108 9q-122 0 -200 -58t-82 -188h-129q23 354 420 354zM799 578h-4q-15 -30 -103 -46t-175 -27q-322 -41 -322 -203q1 -107 69 -166q69 -58 154 -58q169 0 275 91t106 241v168z" />
    <glyph glyph-name="Abreve" unicode="&#x102;" horiz-adv-x="1290" 
d="M660 1657q58 0 122 44q63 44 76 124h80q-16 -123 -95 -192t-203 -69t-201 68t-87 193h80q2 -41 21 -73q53 -95 207 -95zM354 573h576l-283 750zM575 1462h156l574 -1462h-150l-178 455h-666l-176 -455h-147z" />
    <glyph glyph-name="abreve" unicode="&#x103;" 
d="M570 1290q58 0 122 44q63 44 76 124h80q-16 -124 -95 -192t-203 -68t-201 68t-87 192h80q4 -81 68 -126q55 -42 160 -42zM531 1087q397 0 397 -339v-562q0 -78 76 -77q23 0 40 8v-109q-46 -8 -89 -8q-122 0 -141 110q-5 34 -5 74h-4q-79 -114 -159 -163t-226 -50
q-245 0 -327 169q-27 58 -27 154t49 158t130 95t182 46t174 21t104 14q92 19 93 126q2 185 -168 216q-50 9 -108 9q-122 0 -200 -58t-82 -188h-129q23 354 420 354zM799 578h-4q-15 -30 -103 -46t-175 -27q-322 -41 -322 -203q1 -107 69 -166q69 -58 154 -58q169 0 275 91
t106 241v168z" />
    <glyph glyph-name="Aogonek" unicode="&#x104;" horiz-adv-x="1290" 
d="M930 -262q0 74 108 180q45 39 117 82l-178 455h-666l-176 -455h-147l587 1462h156l574 -1462h-70q-144 -115 -168 -203t19 -124q28 -24 63 -23q67 0 113 84l59 -27q-81 -137 -194 -137t-155 47t-42 121zM930 573l-283 750l-293 -750h576z" />
    <glyph glyph-name="aogonek" unicode="&#x105;" 
d="M531 1087q397 0 397 -339v-562q0 -78 76 -77q23 0 40 8v-109q-46 -8 -53 -8q-144 -115 -169 -201q-7 -27 -7 -65t28 -62t62 -22q67 0 113 84l59 -27q-81 -137 -193 -137q-198 0 -198 168q0 76 109 180q45 41 120 84q-55 11 -81 51t-25 131h-4q-79 -114 -159 -163
t-226 -50q-245 0 -327 169q-27 58 -27 154t49 158t130 95t182 46t174 21t104 14q92 19 93 126q2 185 -168 216q-50 9 -108 9q-122 0 -200 -58t-82 -188h-129q23 354 420 354zM444 78q60 0 128 22t117 66q110 95 110 244v168h-4q-15 -30 -103 -46t-175 -27
q-322 -41 -322 -203q1 -108 69 -166t180 -58z" />
    <glyph glyph-name="Cacute" unicode="&#x106;" horiz-adv-x="1441" 
d="M217 732q0 -263 130 -442q149 -202 421 -202q196 0 322 134t147 335h139q-28 -272 -190 -429t-418 -157q-330 2 -510 220t-180 539t179 541t511 222q219 0 389 -126t199 -347h-139q-36 168 -162 262t-279 93q-283 -2 -429 -203q-130 -177 -130 -440zM655 1610l215 288
h160l-270 -288h-105z" />
    <glyph glyph-name="cacute" unicode="&#x107;" 
d="M569 1087q170 0 288 -90t140 -272h-129q-58 254 -299 254q-174 0 -273 -135.5t-98 -315.5t99 -315t272 -135q120 0 208 86t100 215h129q-27 -193 -142 -301t-295 -107q-234 0 -368 161q-133 161 -132 398t134 397t366 160zM426 1204l215 289h160l-271 -289h-104z" />
    <glyph glyph-name="Ccircumflex" unicode="&#x108;" horiz-adv-x="1441" 
d="M897 1595l-176 209l-180 -209h-117l231 289h142l233 -289h-133zM217 732q0 -263 130 -442q149 -202 421 -202q196 0 322 134t147 335h139q-28 -272 -190 -429t-418 -157q-330 2 -510 220t-180 539t179 541t511 222q219 0 389 -126t199 -347h-139q-36 168 -162 262
t-279 93q-283 -2 -429 -203q-130 -177 -130 -440z" />
    <glyph glyph-name="ccircumflex" unicode="&#x109;" 
d="M707 1198l-177 209l-180 -209h-117l232 289h141l234 -289h-133zM569 1087q170 0 288 -90t140 -272h-129q-58 254 -299 254q-174 0 -273 -135.5t-98 -315.5t99 -315t272 -135q120 0 208 86t100 215h129q-27 -193 -142 -301t-295 -107q-234 0 -368 161q-133 161 -132 398
t134 397t366 160z" />
    <glyph glyph-name="Cdotaccent" unicode="&#x10a;" horiz-adv-x="1441" 
d="M657 1802h140v-207h-140v207zM217 732q0 -263 130 -442q149 -202 421 -202q196 0 322 134t147 335h139q-28 -272 -190 -429t-418 -157q-330 2 -510 220t-180 539t179 541t511 222q219 0 389 -126t199 -347h-139q-36 168 -162 262t-279 93q-283 -2 -429 -203
q-130 -177 -130 -440z" />
    <glyph glyph-name="cdotaccent" unicode="&#x10b;" 
d="M467 1405h139v-207h-139v207zM569 1087q170 0 288 -90t140 -272h-129q-58 254 -299 254q-174 0 -273 -135.5t-98 -315.5t99 -315t272 -135q120 0 208 86t100 215h129q-27 -193 -142 -301t-295 -107q-234 0 -368 161q-133 161 -132 398t134 397t366 160z" />
    <glyph glyph-name="Ccaron" unicode="&#x10c;" horiz-adv-x="1441" 
d="M455 1890h131l176 -209l180 209h119l-234 -288h-141zM217 732q0 -263 130 -442q149 -202 421 -202q196 0 322 134t147 335h139q-28 -272 -190 -429t-418 -157q-330 2 -510 220t-180 539t179 541t511 222q219 0 389 -126t199 -347h-139q-36 168 -162 262t-279 93
q-283 -2 -429 -203q-130 -177 -130 -440z" />
    <glyph glyph-name="ccaron" unicode="&#x10d;" 
d="M266 1487h131l176 -209l181 209h118l-233 -289h-141zM569 1087q170 0 288 -90t140 -272h-129q-58 254 -299 254q-174 0 -273 -135.5t-98 -315.5t99 -315t272 -135q120 0 208 86t100 215h129q-27 -193 -142 -301t-295 -107q-234 0 -368 161q-133 161 -132 398t134 397
t366 160z" />
    <glyph glyph-name="Dcaron" unicode="&#x10e;" horiz-adv-x="1402" 
d="M313 1843h131l177 -209l180 209h119l-234 -289h-141zM147 1462h506q334 -8 503 -187t169 -544t-169 -544t-503 -187h-506v1462zM287 119h297q318 1 460 143t142 470t-144 470t-458 141h-297v-1224z" />
    <glyph glyph-name="dcaron" unicode="&#x10f;" horiz-adv-x="1175" 
d="M1346 1571q0 -148 -102 -238q-34 -29 -79 -41v88q41 12 69 74t26 117h-66v217h152v-217zM934 0v201h-4q-41 -104 -147.5 -166t-228.5 -63t-211 43q-174 86 -237 299q-29 101 -28 214q0 241 122 400t353 159q192 0 308 -131q38 -43 59 -100h4v606h129v-1462h-119zM207 528
q0 -294 188 -410q66 -40 163 -40t168 40q194 109 196 409t-196 412q-71 40 -168 40q-177 0 -270 -143q-81 -122 -81 -308z" />
    <glyph glyph-name="Dcroat" unicode="&#x110;" horiz-adv-x="1402" 
d="M147 1462h506q334 -8 503 -187t169 -544t-169 -544t-503 -187h-506v713h-147v92h147v657zM287 805h483v-92h-483v-594h297q318 1 460 143t142 470t-144 470t-458 141h-297v-538z" />
    <glyph glyph-name="dcroat" unicode="&#x111;" horiz-adv-x="1175" 
d="M924 1319v143h129v-143h186v-109h-186v-1210h-119v201h-4q-41 -104 -147.5 -166t-228.5 -63t-211 43q-174 86 -237 299q-29 101 -28 214q0 241 122 400t353 159q192 0 308 -131q38 -43 59 -100h4v354h-213v109h213zM207 528q0 -294 188 -410q66 -40 163 -40t168 40
q194 109 196 409t-196 412q-71 40 -168 40q-177 0 -270 -143q-81 -122 -81 -308z" />
    <glyph glyph-name="Emacron" unicode="&#x112;" horiz-adv-x="1214" 
d="M322 1657h671v-92h-671v92zM147 1462h1010v-119h-870v-528h815v-119h-815v-577h880v-119h-1020v1462z" />
    <glyph glyph-name="emacron" unicode="&#x113;" 
d="M207 1290h672v-92h-672v92zM546.5 978q-148.5 0 -240.5 -110t-107 -266h684q-4 152 -96 264t-240.5 112zM199 494q0 -263 190 -377q66 -39 158 -39q141 0 221 74t111 196h129q-41 -180 -151 -278t-310 -99q-241 0 -360 160.5t-118 392.5t113 388q126 175 364 175
t364 -185q111 -164 102 -408h-813z" />
    <glyph glyph-name="Ebreve" unicode="&#x114;" horiz-adv-x="1214" 
d="M673 1657q58 0 122 44q63 44 75 124h80q-16 -123 -95 -192t-203 -69t-200 68t-87 193h79q2 -41 21 -73q53 -95 208 -95zM147 1462h1010v-119h-870v-528h815v-119h-815v-577h880v-119h-1020v1462z" />
    <glyph glyph-name="ebreve" unicode="&#x115;" 
d="M558 1290q58 0 122 44q63 44 76 124h80q-16 -124 -96 -192t-203 -68t-200 68t-87 192h80q2 -41 20 -73q53 -95 208 -95zM546.5 978q-148.5 0 -240.5 -110t-107 -266h684q-4 152 -96 264t-240.5 112zM199 494q0 -263 190 -377q66 -39 158 -39q141 0 221 74t111 196h129
q-41 -180 -151 -278t-310 -99q-241 0 -360 160.5t-118 392.5t113 388q126 175 364 175t364 -185q111 -164 102 -408h-813z" />
    <glyph glyph-name="Edotaccent" unicode="&#x116;" horiz-adv-x="1214" 
d="M588 1772h139v-207h-139v207zM147 1462h1010v-119h-870v-528h815v-119h-815v-577h880v-119h-1020v1462z" />
    <glyph glyph-name="edotaccent" unicode="&#x117;" 
d="M473 1405h139v-207h-139v207zM546.5 978q-148.5 0 -240.5 -110t-107 -266h684q-4 152 -96 264t-240.5 112zM199 494q0 -263 190 -377q66 -39 158 -39q141 0 221 74t111 196h129q-41 -180 -151 -278t-310 -99q-241 0 -360 160.5t-118 392.5t113 388q126 175 364 175
t364 -185q111 -164 102 -408h-813z" />
    <glyph glyph-name="Eogonek" unicode="&#x118;" horiz-adv-x="1214" 
d="M776 -262q0 76 109 180q45 39 116 82h-854v1462h1010v-119h-870v-528h815v-119h-815v-577h880v-119h-86q-144 -115 -169 -201q-7 -27 -7 -65t28 -62t62 -22q67 0 113 84l59 -27q-81 -137 -193 -137q-198 0 -198 168z" />
    <glyph glyph-name="eogonek" unicode="&#x119;" 
d="M346 -262q0 76 109 180q29 27 69 53q-112 4 -198 46q-170 83 -228 293t1 424t232 305q91 48 217 48t216 -51q174 -99 227 -324q25 -108 21 -218h-813q0 -263 190 -377q66 -39 158 -39q141 0 221 74t111 196h129q-77 -337 -387 -373q-117 -102 -139 -176q-7 -27 -7 -65
t28 -62t62 -22q67 0 113 84l59 -27q-81 -137 -193 -137q-198 0 -198 168zM546.5 978q-148.5 0 -240.5 -110t-107 -266h684q-4 152 -96 264t-240.5 112z" />
    <glyph glyph-name="Ecaron" unicode="&#x11a;" horiz-adv-x="1214" 
d="M383 1884h131l176 -209l180 209h119l-233 -289h-142zM147 1462h1010v-119h-870v-528h815v-119h-815v-577h880v-119h-1020v1462z" />
    <glyph glyph-name="ecaron" unicode="&#x11b;" 
d="M240 1518h131l176 -209l180 209h119l-234 -289h-141zM546.5 978q-148.5 0 -240.5 -110t-107 -266h684q-4 152 -96 264t-240.5 112zM199 494q0 -263 190 -377q66 -39 158 -39q141 0 221 74t111 196h129q-41 -180 -151 -278t-310 -99q-241 0 -360 160.5t-118 392.5t113 388
q126 175 364 175t364 -185q111 -164 102 -408h-813z" />
    <glyph glyph-name="Gcircumflex" unicode="&#x11c;" horiz-adv-x="1517" 
d="M907 1595l-176 209l-180 -209h-117l232 289h141l233 -289h-133zM1397 0h-101l-18 266h-4q-138 -292 -506 -294q-172 0 -302 62t-216 166q-172 209 -172 530t172 533q86 105 216 167t274 63q393 0 563 -274q55 -90 75 -211h-139q-13 138 -144 252t-327 114
q-274 0 -421 -202q-130 -177 -130 -440t130 -442q149 -202 421 -202q238 0 374 149t132 388h-498v118h621v-743z" />
    <glyph glyph-name="gcircumflex" unicode="&#x11d;" horiz-adv-x="1138" 
d="M713 1198l-176 209l-181 -209h-116l231 289h141l234 -289h-133zM1016 86q0 -375 -251 -471q-89 -35 -193 -35q-200 0 -326 82t-137 238h129q27 -162 204 -200q51 -11 105 -11q180 0 260 102t80 295v143h-4q-45 -97 -132 -157t-209 -60q-234 -2 -354 150t-119 386t128 388
t350 151q172 0 283 -131q34 -39 53 -82h4v183h129v-971zM541 121q162 0 254 123t92 298t-85 306t-256 131t-265 -137q-82 -116 -82 -298t84 -293q96 -130 258 -130z" />
    <glyph glyph-name="Gbreve" unicode="&#x11e;" horiz-adv-x="1517" 
d="M752 1688q58 0 122 44q63 44 76 123h80q-16 -123 -95 -191t-203 -68t-201 67.5t-87 191.5h80q2 -41 21 -72q53 -95 207 -95zM1397 0h-101l-18 266h-4q-138 -292 -506 -294q-172 0 -302 62t-216 166q-172 209 -172 530t172 533q86 105 216 167t274 63q393 0 563 -274
q55 -90 75 -211h-139q-13 138 -144 252t-327 114q-274 0 -421 -202q-130 -177 -130 -440t130 -442q149 -202 421 -202q238 0 374 149t132 388h-498v118h621v-743z" />
    <glyph glyph-name="gbreve" unicode="&#x11f;" horiz-adv-x="1138" 
d="M558 1290q58 0 122 44q63 44 76 124h80q-16 -124 -96 -192t-203 -68t-200 68t-87 192h80q2 -41 20 -73q53 -95 208 -95zM1016 86q0 -375 -251 -471q-89 -35 -193 -35q-200 0 -326 82t-137 238h129q27 -162 204 -200q51 -11 105 -11q180 0 260 102t80 295v143h-4
q-45 -97 -132 -157t-209 -60q-234 -2 -354 150t-119 386t128 388t350 151q172 0 283 -131q34 -39 53 -82h4v183h129v-971zM541 121q162 0 254 123t92 298t-85 306t-256 131t-265 -137q-82 -116 -82 -298t84 -293q96 -130 258 -130z" />
    <glyph glyph-name="Gdotaccent" unicode="&#x120;" horiz-adv-x="1517" 
d="M668 1802h139v-207h-139v207zM1397 0h-101l-18 266h-4q-138 -292 -506 -294q-172 0 -302 62t-216 166q-172 209 -172 530t172 533q86 105 216 167t274 63q393 0 563 -274q55 -90 75 -211h-139q-13 138 -144 252t-327 114q-274 0 -421 -202q-130 -177 -130 -440t130 -442
q149 -202 421 -202q238 0 374 149t132 388h-498v118h621v-743z" />
    <glyph glyph-name="gdotaccent" unicode="&#x121;" horiz-adv-x="1138" 
d="M473 1405h139v-207h-139v207zM1016 86q0 -375 -251 -471q-89 -35 -193 -35q-200 0 -326 82t-137 238h129q27 -162 204 -200q51 -11 105 -11q180 0 260 102t80 295v143h-4q-45 -97 -132 -157t-209 -60q-234 -2 -354 150t-119 386t128 388t350 151q172 0 283 -131
q34 -39 53 -82h4v183h129v-971zM541 121q162 0 254 123t92 298t-85 306t-256 131t-265 -137q-82 -116 -82 -298t84 -293q96 -130 258 -130z" />
    <glyph glyph-name="Gcommaaccent" unicode="&#x122;" horiz-adv-x="1517" 
d="M768 1374q-274 0 -421 -202q-130 -177 -130 -440t130 -442q149 -202 421 -202q238 0 374 149t132 388h-498v118h621v-743h-101l-18 266h-4q-138 -292 -506 -294q-172 0 -302 62t-216 166q-172 209 -172 530t172 533q86 105 216 167t274 63q393 0 563 -274q55 -90 75 -211
h-139q-13 138 -144 252t-327 114zM846 -334q0 -153 -102 -237q-34 -29 -80 -41v88q69 20 93 138q5 30 3 54h-86v217h172v-219z" />
    <glyph glyph-name="gcommaaccent" unicode="&#x123;" horiz-adv-x="1138" 
d="M1016 86q0 -375 -251 -471q-89 -35 -193 -35q-200 0 -326 82t-137 238h129q27 -162 204 -200q51 -11 105 -11q180 0 260 102t80 295v143h-4q-45 -97 -132 -157t-209 -60q-234 -2 -354 150t-119 386t128 388t350 151q172 0 283 -131q34 -39 53 -82h4v183h129v-971z
M541 121q162 0 254 123t92 298t-85 306t-256 131t-265 -137q-82 -116 -82 -298t84 -293q96 -130 258 -130zM461 1532q0 153 102 237q35 29 80 41v-88q-46 -18 -73 -78t-23 -114h86v-217h-172v219z" />
    <glyph glyph-name="Hcircumflex" unicode="&#x124;" horiz-adv-x="1441" 
d="M891 1565l-176 209l-180 -209h-117l231 288h142l233 -288h-133zM147 1462h140v-635h868v635h139v-1462h-139v709h-868v-709h-140v1462z" />
    <glyph glyph-name="hcircumflex" unicode="&#x125;" horiz-adv-x="1099" 
d="M719 1565l-176 209l-181 -209h-116l231 288h141l234 -288h-133zM121 1462h129v-588h4q37 96 131 154t206 59q311 0 370 -237q18 -76 18 -170v-680h-129v659q0 320 -268 320q-150 0 -240 -102t-92 -261v-616h-129v1462z" />
    <glyph glyph-name="Hbar" unicode="&#x126;" horiz-adv-x="1441" 
d="M147 1169v293h140v-293h868v293h139v-293h213v-108h-213v-1061h-139v709h-868v-709h-140v1061h-192v108h192zM1155 827v234h-868v-234h868z" />
    <glyph glyph-name="hbar" unicode="&#x127;" horiz-adv-x="1099" 
d="M121 1319v143h129v-143h190v-109h-190v-336h4q37 96 131 154t206 59q311 0 370 -237q18 -76 18 -170v-680h-129v659q0 320 -268 320q-150 0 -240 -102t-92 -261v-616h-129v1210h-209v109h209z" />
    <glyph glyph-name="Itilde" unicode="&#x128;" horiz-adv-x="454" 
d="M440 1592q-31 -16 -85 -16q-55 0 -115 32t-90 46t-68 14t-67.5 -26.5t-28.5 -76.5h-80q14 127 102 174t205 -9q61 -30 91 -44t58 -15q78 0 107 98h78q-22 -131 -107 -177zM158 1462h139v-1462h-139v1462z" />
    <glyph glyph-name="itilde" unicode="&#x129;" horiz-adv-x="378" 
d="M324 1274q77 0 106 98h78q-22 -131 -107 -177q-31 -17 -85 -17t-142 46t-128 47t-70 -26t-29 -78h-80q14 128 109 180q32 17 87 17t202 -76q30 -14 59 -14zM125 0v1057h129v-1057h-129z" />
    <glyph glyph-name="Imacron" unicode="&#x12a;" horiz-adv-x="454" 
d="M-109 1657h672v-92h-672v92zM158 1462h139v-1462h-139v1462z" />
    <glyph glyph-name="imacron" unicode="&#x12b;" horiz-adv-x="378" 
d="M-147 1260h671v-93h-671v93zM125 0v1057h129v-1057h-129z" />
    <glyph glyph-name="Ibreve" unicode="&#x12c;" horiz-adv-x="454" 
d="M242 1657q58 0 123 44q63 44 75 124h80q-16 -123 -95 -192t-203 -69t-200 68t-88 193h80q2 -41 21 -73q53 -95 207 -95zM158 1462h139v-1462h-139v1462z" />
    <glyph glyph-name="ibreve" unicode="&#x12d;" horiz-adv-x="378" 
d="M206 1260q58 0 122 44q63 44 75 123h80q-16 -123 -95.5 -191t-203.5 -68t-200 67.5t-86 191.5h79q2 -41 21 -72q53 -95 208 -95zM125 0v1057h129v-1057h-129z" />
    <glyph glyph-name="Iogonek" unicode="&#x12e;" horiz-adv-x="454" 
d="M228 -430q-112 0 -154 47t-43 123q0 76 109 177q44 40 117 83h-99v1462h139v-1458h45q-149 -116 -175 -205q-7 -27 -7 -65t28 -62t62 -22q66 0 112 84l60 -27q-82 -137 -194 -137zM297 0v4h-33q-4 -2 -7 -4h40z" />
    <glyph glyph-name="iogonek" unicode="&#x12f;" horiz-adv-x="378" 
d="M188 -430q-112 0 -154 47t-42 123t109 177q44 40 117 83h-93v1057h129v-1053h49q-149 -116 -174 -206t19 -125q28 -24 63 -23q67 0 113 84l59 -27q-83 -137 -195 -137zM125 1462h129v-207h-129v207zM254 0v4h-29q-4 -2 -7 -4h36z" />
    <glyph glyph-name="Idot" unicode="&#x130;" horiz-adv-x="454" 
d="M158 1565v207h139v-207h-139zM158 1462h139v-1462h-139v1462z" />
    <glyph glyph-name="dotlessi" unicode="&#x131;" horiz-adv-x="378" 
d="M125 0v1057h129v-1057h-129z" />
    <glyph glyph-name="IJ" unicode="&#x132;" horiz-adv-x="1478" 
d="M1192 1462h139v-1054q0 -229 -98 -333t-328 -104t-330 153q-77 118 -77 345h139q2 -47 6 -113t29 -125q61 -143 246 -143q158 0 216 85t58 294v995zM158 1462h139v-1462h-139v1462z" />
    <glyph glyph-name="ij" unicode="&#x133;" horiz-adv-x="757" 
d="M504 1462h129v-207h-129v207zM633 -96q0 -296 -225 -293l-89 4v106q43 -5 68 -2q76 0 96 44t21 110v1184h129v-1153zM125 1462h129v-207h-129v207zM125 1057h129v-1057h-129v1057z" />
    <glyph glyph-name="Jcircumflex" unicode="&#x134;" horiz-adv-x="1024" 
d="M1130 1542h-133l-176 209l-180 -209h-117l232 289h141zM737 1462h140v-1054q0 -228 -98 -332q-99 -104 -329 -105q-230 0 -329 153q-78 120 -78 345h139q2 -47 6 -113t29 -125q61 -143 246 -143q158 0 216 85t58 294v995z" />
    <glyph glyph-name="jcircumflex" unicode="&#x135;" horiz-adv-x="378" 
d="M254 -96q0 -296 -225 -293l-88 4v106q42 -5 67 -2q76 0 96 44t21 110v1184h129v-1153zM352 1204l-176 209l-180 -209h-117l232 289h141l233 -289h-133z" />
    <glyph glyph-name="Kcommaaccent" unicode="&#x136;" horiz-adv-x="1327" 
d="M287 1462v-786l850 786h188l-653 -604l684 -858h-180l-609 762l-280 -260v-502h-140v1462h140zM743 -334q0 -151 -101 -237q-34 -29 -81 -41v88q46 14 73 76t23 116h-86v217h172v-219z" />
    <glyph glyph-name="kcommaaccent" unicode="&#x137;" horiz-adv-x="1024" 
d="M252 1462v-917l586 512h172l-451 -391l481 -666h-161l-418 575l-209 -174v-401h-129v1462h129zM641 -334q0 -151 -101 -237q-34 -29 -81 -41v88q46 14 73 76t23 116h-86v217h172v-219z" />
    <glyph glyph-name="kgreenlandic" unicode="&#x138;" horiz-adv-x="1024" 
d="M252 1057v-512l586 512h172l-451 -391l481 -666h-161l-418 575l-209 -174v-401h-129v1057h129z" />
    <glyph glyph-name="Lacute" unicode="&#x139;" horiz-adv-x="1099" 
d="M438 1565l215 288h160l-270 -288h-105zM147 1462h140v-1343h819v-119h-959v1462z" />
    <glyph glyph-name="lacute" unicode="&#x13a;" horiz-adv-x="378" 
d="M0 1565l215 288h160l-271 -288h-104zM125 1462h129v-1462h-129v1462z" />
    <glyph glyph-name="Lcommaaccent" unicode="&#x13b;" horiz-adv-x="1099" 
d="M287 1462v-1343h819v-119h-959v1462h140zM641 -334q0 -151 -101 -237q-34 -29 -81 -41v88q46 14 73 76t23 116h-86v217h172v-219z" />
    <glyph glyph-name="lcommaaccent" unicode="&#x13c;" horiz-adv-x="378" 
d="M254 1462v-1462h-129v1462h129zM272 -334q0 -151 -101 -237q-34 -29 -81 -41v88q46 14 73 76t23 116h-86v217h172v-219z" />
    <glyph glyph-name="Lcaron" unicode="&#x13d;" horiz-adv-x="1099" 
d="M455 1853l176 -208l180 208h119l-234 -288h-141l-231 288h131zM147 1462h140v-1343h819v-119h-959v1462z" />
    <glyph glyph-name="lcaron" unicode="&#x13e;" horiz-adv-x="378" 
d="M16 1853l177 -208l180 208h119l-234 -288h-141l-232 288h131zM125 1462h129v-1462h-129v1462z" />
    <glyph glyph-name="Ldot" unicode="&#x13f;" horiz-adv-x="1099" 
d="M287 1462v-1343h819v-119h-959v1462h140zM670 831h172v-217h-172v217z" />
    <glyph glyph-name="ldot" unicode="&#x140;" horiz-adv-x="747" 
d="M254 1462v-1462h-129v1462h129zM424 831h172v-217h-172v217z" />
    <glyph glyph-name="Lslash" unicode="&#x141;" horiz-adv-x="1099" 
d="M147 1462h140v-739l497 344v-115l-497 -342v-491h819v-119h-959v514l-165 -117v115l165 115v835z" />
    <glyph glyph-name="lslash" unicode="&#x142;" horiz-adv-x="378" 
d="M125 1462h129v-547l137 113v-113l-137 -112v-803h-129v696l-135 -112v112l135 113v653z" />
    <glyph glyph-name="Nacute" unicode="&#x143;" horiz-adv-x="1441" 
d="M1157 225v1237h139v-1462h-155l-852 1237h-4v-1237h-140v1462h156l852 -1237h4zM635 1579l215 289h160l-271 -289h-104z" />
    <glyph glyph-name="nacute" unicode="&#x144;" horiz-adv-x="1099" 
d="M250 1057v-183h4q37 96 131 154t206 59q311 0 370 -237q18 -76 18 -170v-680h-129v659q0 320 -268 320q-150 0 -240 -102t-92 -261v-616h-129v1057h129zM424 1204l215 289h160l-271 -289h-104z" />
    <glyph glyph-name="Ncommaaccent" unicode="&#x145;" horiz-adv-x="1441" 
d="M1157 225v1237h139v-1462h-155l-852 1237h-4v-1237h-140v1462h156l852 -1237h4zM805 -334q0 -153 -102 -237q-34 -29 -80 -41v88q69 20 93 138q5 30 3 54h-86v217h172v-219z" />
    <glyph glyph-name="ncommaaccent" unicode="&#x146;" horiz-adv-x="1099" 
d="M250 1057v-183h4q37 96 131 154t206 59q311 0 370 -237q18 -76 18 -170v-680h-129v659q0 320 -268 320q-150 0 -240 -102t-92 -261v-616h-129v1057h129zM641 -334q0 -151 -101 -237q-34 -29 -81 -41v88q46 14 73 76t23 116h-86v217h172v-219z" />
    <glyph glyph-name="Ncaron" unicode="&#x147;" horiz-adv-x="1441" 
d="M438 1882h131l176 -209l181 209h118l-233 -289h-141zM145 1462h156l852 -1237h4v1237h139v-1462h-155l-852 1237h-4v-1237h-140v1462z" />
    <glyph glyph-name="ncaron" unicode="&#x148;" horiz-adv-x="1099" 
d="M291 1511h131l176 -208l180 208h119l-233 -288h-142zM121 1057h129v-183h4q37 96 131 154t206 59q311 0 370 -237q18 -76 18 -170v-680h-129v659q0 320 -268 320q-150 0 -240 -102t-92 -261v-616h-129v1057z" />
    <glyph glyph-name="napostrophe" unicode="&#x149;" horiz-adv-x="1429" 
d="M1180 659q0 320 -269 320q-149 0 -239 -102t-92 -261v-616h-129v1057h129v-183h4q37 96 131 154t206 59q212 0 306 -109q80 -92 82 -298v-680h-129v659zM348 1475v-220q0 -151 -101 -237q-34 -29 -81 -41v88q45 13 73 76t23 116h-86v218h172z" />
    <glyph glyph-name="Eng" unicode="&#x14a;" horiz-adv-x="1441" 
d="M1292 -96q0 -296 -225 -293l-88 4v106q43 -5 68 -2q76 0 96 44t20 110l-22 127l-856 1237v-1237h-140v1462h156l856 -1237v1237h135v-1558z" />
    <glyph glyph-name="eng" unicode="&#x14b;" horiz-adv-x="1087" 
d="M979 -96q0 -296 -225 -293l-88 4v106q42 -5 67 -2q76 0 96 44t21 110v786q0 320 -268 320q-150 0 -240 -102t-92 -261v-616h-129v1057h129v-183h4q37 96 131 154t206 59q311 0 370 -237q18 -76 18 -170v-776z" />
    <glyph glyph-name="Omacron" unicode="&#x14c;" horiz-adv-x="1517" 
d="M422 1688h672v-93h-672v93zM209 732q0 -263 130 -442q149 -202 421 -202t419 202q130 177 130 441t-130 441q-149 202 -421 202t-419 -202q-130 -177 -130 -440zM1448 731q0 -322 -180 -540t-510 -218q-329 0 -508 218q-180 218 -180 539t179 541t510 221q330 1 517 -229
q172 -210 172 -532z" />
    <glyph glyph-name="omacron" unicode="&#x14d;" horiz-adv-x="1138" 
d="M233 1290h672v-92h-672v92zM570 78q92 0 161 39q137 76 185 247q24 80 24 164q0 177 -98 314t-273 137q-91 0 -161 -39q-134 -76 -184 -243t-1 -335t185 -245q70 -39 162 -39zM1069.5 528q0.5 -238 -131.5 -398t-368 -159q-236 0 -369 161t-132 398t134 397t365 160
t372 -165q129 -156 129.5 -394z" />
    <glyph glyph-name="Obreve" unicode="&#x14e;" horiz-adv-x="1517" 
d="M774 1688q58 0 121 44t76 123h80q-15 -123 -95 -191t-204 -68t-200 67q-76 68 -87 192h80q2 -41 20 -72q54 -95 209 -95zM209 732q0 -263 130 -442q149 -202 421 -202t419 202q130 177 130 441t-130 441q-149 202 -421 202t-419 -202q-130 -177 -130 -440zM1448 731
q0 -322 -180 -540t-510 -218q-329 0 -508 218q-180 218 -180 539t179 541t510 221q330 1 517 -229q172 -210 172 -532z" />
    <glyph glyph-name="obreve" unicode="&#x14f;" horiz-adv-x="1138" 
d="M584 1290q58 0 123 44q63 44 75 124h80q-16 -124 -95 -192t-203 -68t-200 68t-88 192h80q2 -41 21 -73q53 -95 207 -95zM570 78q92 0 161 39q137 76 185 247q24 80 24 164q0 177 -98 314t-273 137q-91 0 -161 -39q-134 -76 -184 -243t-1 -335t185 -245q70 -39 162 -39z
M1069.5 528q0.5 -238 -131.5 -398t-368 -159q-236 0 -369 161t-132 398t134 397t365 160t372 -165q129 -156 129.5 -394z" />
    <glyph glyph-name="Ohungarumlaut" unicode="&#x150;" horiz-adv-x="1517" 
d="M1051 1876h155l-258 -289h-104zM731 1876h156l-258 -289h-103zM209 732q0 -263 130 -442q149 -202 421 -202t419 202q130 177 130 441t-130 441q-149 202 -421 202t-419 -202q-130 -177 -130 -440zM1448 731q0 -322 -180 -540t-510 -218q-329 0 -508 218
q-180 218 -180 539t179 541t510 221q330 1 517 -229q172 -210 172 -532z" />
    <glyph glyph-name="ohungarumlaut" unicode="&#x151;" horiz-adv-x="1138" 
d="M840 1479h155l-258 -289h-104zM520 1479h156l-258 -289h-103zM570 78q92 0 161 39q137 76 185 247q24 80 24 164q0 177 -98 314t-273 137q-91 0 -161 -39q-134 -76 -184 -243t-1 -335t185 -245q70 -39 162 -39zM1069.5 528q0.5 -238 -131.5 -398t-368 -159
q-236 0 -369 161t-132 398t134 397t365 160t372 -165q129 -156 129.5 -394z" />
    <glyph glyph-name="OE" unicode="&#x152;" horiz-adv-x="2199" 
d="M742 -29q-136 0 -265 60.5t-218 165t-136 243t-47 292t47 291.5t136 242.5t218 166t291 61.5q262 0 397 -152v121h971v-119h-831v-528h753v-119h-753v-577h837v-119h-977v143q-147 -172 -423 -172zM1165 1042q0 94 -10 136q-34 88 -153.5 142t-243.5 54t-227 -52
t-173.5 -140t-106.5 -205t-36 -317.5t148.5 -386t404.5 -185.5q113 0 201 35t159 127q32 40 37 112v680z" />
    <glyph glyph-name="oe" unicode="&#x153;" horiz-adv-x="1820" 
d="M1638 602q0 156 -86.5 266.5t-241.5 110.5t-242 -108.5t-87 -268.5h657zM1298 -29q-131 0 -236.5 67.5t-139.5 199.5h-4q-39 -135 -140.5 -201t-232.5 -66t-219 45t-144.5 122t-82 178.5t-25.5 274.5t121.5 334.5t349.5 161.5q135 0 235.5 -62t141.5 -198h4
q43 117 145.5 188.5t243.5 71.5q236 0 344 -149.5t108 -443.5h-786q0 -171 84.5 -293.5t245.5 -122.5q253 0 325 262h129q-43 -180 -162.5 -274.5t-304.5 -94.5zM203 504q0 -283 123 -354.5t218 -71.5t155.5 41t94 107.5t46 148.5t12.5 161.5t-12.5 158.5t-68 181.5
t-233.5 102.5t-256.5 -138t-78.5 -337z" />
    <glyph glyph-name="Racute" unicode="&#x154;" horiz-adv-x="1366" 
d="M535 1565l215 288h159l-270 -288h-104zM287 768h520q135 0 226 79t90 210t-79 209t-237 77h-520v-575zM147 1462h670q303 0 409 -210q36 -74 36 -192t-72 -220t-213 -131v-4q196 -27 238 -208q17 -72 22 -207q8 -222 63 -290h-153q-23 39 -29 98t-14 200t-48 221
q-68 137 -241 130h-528v-649h-140v1462z" />
    <glyph glyph-name="racute" unicode="&#x155;" horiz-adv-x="645" 
d="M195 1188l215 289h159l-270 -289h-104zM123 1057h119v-248h4q49 129 152 199t247 63v-129q-173 8 -283 -100t-110 -279v-563h-129v1057z" />
    <glyph glyph-name="Rcommaaccent" unicode="&#x156;" horiz-adv-x="1366" 
d="M807 768q135 0 226 79t90 210t-79 209t-237 77h-520v-575h520zM817 1462q303 0 409 -210q36 -74 36 -192t-72 -220t-213 -131v-4q196 -27 238 -208q17 -72 22 -207q8 -222 63 -290h-153q-23 39 -29 98t-14 200t-48 221q-68 137 -241 130h-528v-649h-140v1462h670z
M743 -334q0 -151 -101 -237q-34 -29 -81 -41v88q46 14 73 76t23 116h-86v217h172v-219z" />
    <glyph glyph-name="rcommaaccent" unicode="&#x157;" horiz-adv-x="645" 
d="M242 1057v-248h4q49 129 152 199t247 63v-129q-173 8 -283 -100t-110 -279v-563h-129v1057h119zM272 -334q0 -151 -101 -237q-34 -29 -81 -41v88q46 14 73 76t23 116h-86v217h172v-219z" />
    <glyph glyph-name="Rcaron" unicode="&#x158;" horiz-adv-x="1366" 
d="M393 1872h131l176 -209l181 209h118l-233 -289h-141zM287 768h520q135 0 226 79t90 210t-79 209t-237 77h-520v-575zM147 1462h670q303 0 409 -210q36 -74 36 -192t-72 -220t-213 -131v-4q196 -27 238 -208q17 -72 22 -207q8 -222 63 -290h-153q-23 39 -29 98t-14 200
t-48 221q-68 137 -241 130h-528v-649h-140v1462z" />
    <glyph glyph-name="rcaron" unicode="&#x159;" horiz-adv-x="645" 
d="M98 1516h131l177 -209l180 209h119l-234 -289h-141zM123 1057h119v-248h4q49 129 152 199t247 63v-129q-173 8 -283 -100t-110 -279v-563h-129v1057z" />
    <glyph glyph-name="Sacute" unicode="&#x15a;" horiz-adv-x="1290" 
d="M1077 385q0 114 -99 182q-69 49 -202 82l-325 80q-154 39 -230 107q-102 93 -100 245q0 253 252 368q97 44 229 44q250 0 406 -120t157 -335h-139q-8 158 -123 248t-276 88q-250 0 -336 -153q-31 -55 -31 -122q0 -156 136 -212q40 -16 85 -27l357 -88q272 -70 349 -231
q30 -63 30 -154q0 -135 -82 -242q-133 -174 -477 -174q-130 0 -240 30q-228 62 -308 249q-42 96 -36 231h139q-7 -388 477 -393q143 0 251 69q136 84 136 228zM559 1579l215 289h160l-270 -289h-105z" />
    <glyph glyph-name="sacute" unicode="&#x15b;" horiz-adv-x="985" 
d="M229 801q0 -108 148 -161q39 -13 72 -22l172 -38q198 -29 274 -172q27 -52 27 -130t-39 -138q-107 -166 -390 -168q-181 -1 -297 87t-133 283h130q8 -131 95 -198t216 -66q180 0 261 107q28 37 28 89q0 126 -147 172q-42 14 -85 25l-166 37q-135 34 -215 96t-80 199.5
t129 216.5q109 67 269 67q260 0 352 -190q31 -63 35 -149h-129q-2 59 -25 103q-67 128 -242 128t-237 -96q-23 -35 -23 -82zM387 1204l215 289h160l-270 -289h-105z" />
    <glyph glyph-name="Scircumflex" unicode="&#x15c;" horiz-adv-x="1290" 
d="M811 1595l-176 209l-180 -209h-117l231 289h142l233 -289h-133zM1077 385q0 114 -99 182q-69 49 -202 82l-325 80q-154 39 -230 107q-102 93 -100 245q0 253 252 368q97 44 229 44q250 0 406 -120t157 -335h-139q-8 158 -123 248t-276 88q-250 0 -336 -153
q-31 -55 -31 -122q0 -156 136 -212q40 -16 85 -27l357 -88q272 -70 349 -231q30 -63 30 -154q0 -135 -82 -242q-133 -174 -477 -174q-130 0 -240 30q-228 62 -308 249q-42 96 -36 231h139q-7 -388 477 -393q143 0 251 69q136 84 136 228z" />
    <glyph glyph-name="scircumflex" unicode="&#x15d;" horiz-adv-x="985" 
d="M662 1198l-177 209l-180 -209h-117l232 289h141l234 -289h-133zM229 801q0 -108 148 -161q39 -13 72 -22l172 -38q198 -29 274 -172q27 -52 27 -130t-39 -138q-107 -166 -390 -168q-181 -1 -297 87t-133 283h130q8 -131 95 -198t216 -66q180 0 261 107q28 37 28 89
q0 126 -147 172q-42 14 -85 25l-166 37q-135 34 -215 96t-80 199.5t129 216.5q109 67 269 67q260 0 352 -190q31 -63 35 -149h-129q-2 59 -25 103q-67 128 -242 128t-237 -96q-23 -35 -23 -82z" />
    <glyph glyph-name="Scedilla" unicode="&#x15e;" horiz-adv-x="1290" 
d="M729 -278q0 82 -105 83q-51 0 -87 -16l-33 31l119 152q-400 11 -513 278q-42 96 -36 231h139q-7 -388 477 -393q143 0 251 69q136 84 136 228q0 114 -99 182q-69 49 -202 82l-325 80q-154 39 -230 107q-102 93 -100 245q0 253 252 368q97 44 229 44q250 0 406 -120
t157 -335h-139q-8 158 -123 248t-276 88q-250 0 -336 -153q-31 -55 -31 -122q0 -156 136 -212q40 -16 85 -27l357 -88q272 -70 349 -231q30 -63 30 -154q0 -135 -82 -242q-126 -164 -441 -173l6 8h-71l-6 -8q17 -1 35 -1t36 1l-84 -109q154 25 214 -51q24 -29 24 -76
q0 -88 -68 -132t-138 -44q-130 0 -210 43l27 65q76 -28 140 -28q130 0 130 82z" />
    <glyph glyph-name="scedilla" unicode="&#x15f;" horiz-adv-x="985" 
d="M580 -278q0 82 -105 83q-51 0 -88 -16l-33 31l119 152q-169 5 -281 90t-129 280h130q8 -131 95 -198t216 -66q180 0 261 107q28 37 28 89q0 126 -147 172q-42 14 -85 25l-166 37q-135 34 -215 96t-80 199.5t129 216.5q109 67 269 67q260 0 352 -190q31 -63 35 -149h-129
q-2 59 -25 103q-67 128 -242 128t-237 -96q-23 -35 -23 -82q0 -108 148 -161q39 -13 72 -22l172 -38q198 -29 274 -172q27 -52 27 -130t-39 -138q-96 -148 -337 -167l5 7h-72l-6 -8h25q24 0 48 1l-85 -110q151 25 214 -51q23 -29 23 -76q0 -88 -68 -132t-137 -44
q-130 0 -210 43l26 65q76 -28 140 -28q131 0 131 82z" />
    <glyph glyph-name="Scaron" unicode="&#x160;" horiz-adv-x="1290" 
d="M342 1868h133l176 -209l180 209h119l-233 -289h-142zM1077 394q0 185 -301 255l-325 80q-156 40 -243 119t-87 231t115.5 283t367.5 131t406.5 -120.5t154.5 -334.5h-139q-8 159 -121.5 247.5t-277.5 88.5q-250 0 -308.5 -105t-58.5 -171q0 -112 60 -163.5t161 -74.5
l357 -88q273 -70 326 -182t53 -170t-5.5 -98.5t-25 -87t-55 -93.5t-98 -85t-155 -61.5t-294 -23.5t-361.5 127t-149 383h139q-4 -211 126.5 -302t310.5 -91t303.5 76.5t123.5 229.5z" />
    <glyph glyph-name="scaron" unicode="&#x161;" horiz-adv-x="985" 
d="M188 1493h134l176 -209l180 209h119l-234 -289h-141zM229 791q0 -101 93.5 -132.5t126.5 -40.5l172 -38q121 -18 211 -91.5t90 -201.5q0 -158 -126 -237t-305 -79t-295 88t-133 283h130q8 -131 95 -197.5t207 -66.5t181 34.5t89 72t28 89.5q0 89 -64 131t-168 66l-166 37
q-141 36 -195.5 79.5t-77 89.5t-22.5 120q0 144 120 217t278 73q259 0 321 -126.5t66 -212.5h-129q-4 115 -81.5 173t-186.5 58t-184 -43.5t-75 -144.5z" />
    <glyph glyph-name="Tcedilla" unicode="&#x162;" horiz-adv-x="1138" 
d="M529 -340q130 0 128 88q-1 76 -105 78q-52 0 -87 -16l-33 30l125 160h72l-90 -117q151 25 214 -51q23 -29 23 -76q-1 -89 -74 -134q-64 -42 -132 -42q-128 0 -210 43l27 66q79 -29 142 -29zM639 0h-139v1343h-508v119h1157v-119h-510v-1343z" />
    <glyph glyph-name="tcedilla" unicode="&#x163;" horiz-adv-x="606" 
d="M238 -342q129 0 129 82t-105 84q-51 0 -88 -17l-33 31l125 160h70q-58 12 -88 42q-51 50 -49 185v723h-185v109h185v317h129v-317h215v-109h-215v-712q0 -64 17 -100t79 -38t119 4v-108l-115 -4q-51 0 -90 8l-90 -117q151 25 214 -51q24 -29 24 -76q-1 -88 -69 -132
t-137 -44q-130 0 -210 43l26 66q79 -29 142 -29z" />
    <glyph glyph-name="Tcaron" unicode="&#x164;" horiz-adv-x="1138" 
d="M272 1876h131l177 -209l180 209h119l-234 -289h-141zM-8 1462h1157v-119h-510v-1343h-139v1343h-508v119z" />
    <glyph glyph-name="tcaron" unicode="&#x165;" horiz-adv-x="606" 
d="M659 1456q0 -151 -101 -237q-34 -29 -79 -41v88q43 14 71 76t23 114h-65v217h151v-217zM199 948h-185v109h185v317h129v-317h215v-109h-215v-712q0 -64 17 -100t79 -38t119 4v-108l-115 -4q-129 0 -180 50t-49 185v723z" />
    <glyph glyph-name="Tbar" unicode="&#x166;" horiz-adv-x="1138" 
d="M500 930v413h-508v119h1157v-119h-510v-413h283v-109h-283v-821h-139v821h-312v109h312z" />
    <glyph glyph-name="tbar" unicode="&#x167;" horiz-adv-x="606" 
d="M199 616h-185v109h185v223h-185v109h185v317h129v-317h215v-109h-215v-223h215v-109h-215v-380q0 -64 17 -100t79 -38t119 4v-108l-115 -4q-129 0 -180 50t-49 185v391z" />
    <glyph glyph-name="Utilde" unicode="&#x168;" horiz-adv-x="1402" 
d="M913 1592q-31 -16 -85 -16t-115 32t-91 46t-67 14t-67 -26.5t-29 -76.5h-80q14 127 102 174t177.5 4t119.5 -57t58 -15q77 0 106 98h78q-22 -131 -107 -177zM133 1462h139v-905q0 -362 248 -443q80 -26 181 -26q211 0 321 112t108 357v905h140v-936q0 -243 -140 -399
t-430 -156t-435 164q-132 145 -132 391v936z" />
    <glyph glyph-name="utilde" unicode="&#x169;" horiz-adv-x="1099" 
d="M684 1274q78 0 107 98h77q-22 -130 -106 -177q-31 -17 -86 -17t-141 46t-127 47t-71 -26t-30 -78h-80q9 81 44 122q65 75 133 75t130 -31t92 -45t58 -14zM121 371v686h129v-688q4 -143 66 -217t217 -74t241 131q74 112 76 293v555h129v-1057h-119v190h-4
q-51 -106 -148 -162t-216 -57q-371 0 -371 400z" />
    <glyph glyph-name="Umacron" unicode="&#x16a;" horiz-adv-x="1402" 
d="M365 1657h671v-92h-671v92zM133 1462h139v-905q0 -362 248 -443q80 -26 181 -26q211 0 321 112t108 357v905h140v-936q0 -243 -140 -399t-430 -156t-435 164q-132 145 -132 391v936z" />
    <glyph glyph-name="umacron" unicode="&#x16b;" horiz-adv-x="1099" 
d="M213 1260h672v-93h-672v93zM121 371v686h129v-688q4 -143 66 -217t217 -74t241 131q74 112 76 293v555h129v-1057h-119v190h-4q-51 -106 -148 -162t-216 -57q-371 0 -371 400z" />
    <glyph glyph-name="Ubreve" unicode="&#x16c;" horiz-adv-x="1402" 
d="M716 1657q58 0 122 44q63 44 75 124h80q-16 -123 -95.5 -192t-203.5 -69t-200 68t-86 193h79q2 -41 21 -73q53 -95 208 -95zM133 1462h139v-905q0 -362 248 -443q80 -26 181 -26q211 0 321 112t108 357v905h140v-936q0 -243 -140 -399t-430 -156t-435 164
q-132 145 -132 391v936z" />
    <glyph glyph-name="ubreve" unicode="&#x16d;" horiz-adv-x="1099" 
d="M564 1260q58 0 122 44q63 44 76 123h80q-16 -123 -95 -191t-203 -68t-201 67.5t-87 191.5h80q2 -41 20 -72q52 -95 208 -95zM121 371v686h129v-688q4 -143 66 -217t217 -74t241 131q74 112 76 293v555h129v-1057h-119v190h-4q-51 -106 -148 -162t-216 -57
q-371 0 -371 400z" />
    <glyph glyph-name="Uring" unicode="&#x16e;" horiz-adv-x="1402" 
d="M850 1736q0 60 -40 100t-99 40t-99 -40t-40 -99t38 -99q40 -40 100 -40t100 38q40 40 40 100zM494 1738q0 94 62 155t154 62t156 -63q62 -64 63 -155t-63 -155t-155 -64t-154 63t-63 157zM133 1462h139v-905q0 -362 248 -443q80 -26 181 -26q211 0 321 112t108 357v905
h140v-936q0 -243 -140 -399t-430 -156t-435 164q-132 145 -132 391v936z" />
    <glyph glyph-name="uring" unicode="&#x16f;" horiz-adv-x="1099" 
d="M424 1405q0 -59 40 -99t99 -40t100 40q40 40 39 99q0 59 -39 99t-99 40t-100 -40t-40 -99zM782 1405q0 -91 -64 -155t-156 -64t-154 64t-62 156t64 156q64 62 154 62t154 -64t64 -155zM121 371v686h129v-688q4 -143 66 -217t217 -74t241 131q74 112 76 293v555h129v-1057
h-119v190h-4q-51 -106 -148 -162t-216 -57q-371 0 -371 400z" />
    <glyph glyph-name="Uhungarumlaut" unicode="&#x170;" horiz-adv-x="1402" 
d="M932 1864h155l-258 -289h-104zM612 1864h156l-258 -289h-102zM133 1462h139v-905q0 -362 248 -443q80 -26 181 -26q211 0 321 112t108 357v905h140v-936q0 -243 -140 -399t-430 -156t-435 164q-132 145 -132 391v936z" />
    <glyph glyph-name="uhungarumlaut" unicode="&#x171;" horiz-adv-x="1099" 
d="M766 1503h156l-258 -289h-105zM446 1503h156l-258 -289h-102zM121 371v686h129v-688q4 -143 66 -217t217 -74t241 131q74 112 76 293v555h129v-1057h-119v190h-4q-51 -106 -148 -162t-216 -57q-371 0 -371 400z" />
    <glyph glyph-name="Uogonek" unicode="&#x172;" horiz-adv-x="1402" 
d="M504 -284q0 77 109 176q43 39 111 80q-12 0 -24 -1q-288 0 -435 164q-132 145 -132 391v936h139v-905q0 -362 248 -443q80 -26 181 -26q211 0 321 112t108 357v905h140v-936q0 -243 -126 -383t-331 -165l2 2h-78q-7 -4 -13 -8q47 1 89 6q-145 -113 -173 -203
q-23 -90 12.5 -120.5t70.5 -29.5q65 0 113 84l59 -26q-83 -138 -195 -138t-154 47t-42 124z" />
    <glyph glyph-name="uogonek" unicode="&#x173;" horiz-adv-x="1099" 
d="M550 -455q-198 0 -198 168q0 81 110 179q46 42 124 88h78q-149 -116 -176 -205q-7 -27 -7 -65t28 -62t62 -23q65 0 113 84l59 -26q-81 -138 -193 -138zM121 371v686h129v-688q4 -143 66 -217t217 -74t241 131q74 112 76 293v555h129v-1057h-119v190h-4
q-51 -106 -148 -162t-216 -57q-371 0 -371 400z" />
    <glyph glyph-name="Wcircumflex" unicode="&#x174;" horiz-adv-x="1857" 
d="M1096 1565l-176 209l-181 -209h-116l231 288h141l234 -288h-133zM0 1462h150l331 -1280h4l357 1280h174l358 -1280h4l334 1280h139l-403 -1462h-148l-370 1309h-4l-369 -1309h-151z" />
    <glyph glyph-name="wcircumflex" unicode="&#x175;" horiz-adv-x="1517" 
d="M928 1167l-176 209l-181 -209h-116l231 289h141l234 -289h-133zM16 1057h138l270 -905h4l258 905h145l259 -905h4l270 905h137l-340 -1057h-141l-260 889h-4l-258 -889h-142z" />
    <glyph glyph-name="Ycircumflex" unicode="&#x176;" horiz-adv-x="1251" 
d="M797 1565l-176 209l-181 -209h-116l231 288h141l234 -288h-133zM694 0h-139v602l-573 860h163l482 -741l479 741h166l-578 -860v-602z" />
    <glyph glyph-name="ycircumflex" unicode="&#x177;" horiz-adv-x="948" 
d="M643 1167l-176 209l-180 -209h-117l231 289h142l233 -289h-133zM206 -281q94 0 144 99q14 31 31 67l45 119l-422 1053h137l348 -901l326 901h129l-459 -1217q-59 -138 -98 -172t-79 -45.5t-112 -9.5t-87 8v109q63 -11 97 -11z" />
    <glyph glyph-name="Ydieresis" unicode="&#x178;" horiz-adv-x="1251" 
d="M375 1614v207h139v-207h-139zM737 1614v207h140v-207h-140zM694 0h-139v602l-573 860h163l482 -741l479 741h166l-578 -860v-602z" />
    <glyph glyph-name="Zacute" unicode="&#x179;" horiz-adv-x="1175" 
d="M1128 1462v-123l-962 -1220h983v-119h-1139v123l963 1220h-897v119h1052zM481 1579l215 289h160l-270 -289h-105z" />
    <glyph glyph-name="zacute" unicode="&#x17a;" horiz-adv-x="948" 
d="M913 109v-109h-882v104l690 844h-643v109h807v-92l-699 -856h727zM369 1204l215 289h159l-270 -289h-104z" />
    <glyph glyph-name="Zdotaccent" unicode="&#x17b;" horiz-adv-x="1175" 
d="M1128 1462v-123l-962 -1220h983v-119h-1139v123l963 1220h-897v119h1052zM518 1821h139v-207h-139v207z" />
    <glyph glyph-name="zdotaccent" unicode="&#x17c;" horiz-adv-x="948" 
d="M913 109v-109h-882v104l690 844h-643v109h807v-92l-699 -856h727zM403 1446h140v-207h-140v207z" />
    <glyph glyph-name="Zcaron" unicode="&#x17d;" horiz-adv-x="1175" 
d="M285 1868h133l176 -209l180 209h119l-234 -289h-141zM76 1462h1052v-123l-962 -1220h983v-119h-1139v123l963 1220h-897v119z" />
    <glyph glyph-name="zcaron" unicode="&#x17e;" horiz-adv-x="948" 
d="M170 1493h133l176 -209l180 209h119l-233 -289h-142zM913 109v-109h-882v104l690 844h-643v109h807v-92l-699 -856h727z" />
    <glyph glyph-name="longs" unicode="&#x17f;" horiz-adv-x="530" 
d="M446 1354q-36 0 -65 -16q-53 -30 -57 -109q-2 -37 -2 -80v-1149h-129v948h-181v109h181v96q0 154 49 223q62 88 207 86q48 0 108 -8v-111q-75 11 -111 11z" />
    <glyph glyph-name="uni018E" unicode="&#x18e;" horiz-adv-x="1214" 
d="M158 0v119h870v528h-815v119h815v577h-881v119h1020v-1462h-1009z" />
    <glyph glyph-name="uni018F" unicode="&#x18f;" horiz-adv-x="1458" 
d="M1389 734q0 -327 -166 -533q-184 -228 -512 -230q-290 0 -466 208q-175 208 -175 597h1177q-22 411 -284 547q-99 51 -251 51t-285 -103t-177 -251h-139q46 218 220 346t371 127q359 0 533 -230q154 -202 154 -529zM217 657q0 -225 140 -397q139 -172 371 -172t376 174
q123 149 141 395h-1028z" />
    <glyph glyph-name="florin" unicode="&#x192;" horiz-adv-x="1138" 
d="M877 1462q45 0 127 -10l-25 -106q-137 24 -202.5 -26.5t-85 -140t-32.5 -143.5l-28 -137h231l-18 -108h-232l-125 -662q-18 -92 -35.5 -179t-79 -196.5t-266.5 -105.5q-35 0 -92 10l19 111q128 -29 172.5 2.5t71 72.5t51.5 142l153 805h-205l19 108h207l26 141
q18 80 37 157t76 171t236 94z" />
    <glyph glyph-name="Ohorn" unicode="&#x1a0;" horiz-adv-x="1724" 
d="M1448 576q0 -352 -387 -542q-129 -62 -301 -62t-302 62t-216 166q-172 209 -172 530t179 541t510 221t517 -230q44 -38 74 -49t71 -11q82 -2 105 66t22 194h119q0 -206 -47 -281t-184 -75q-37 0 -68 10q80 -188 80 -540zM209 732q0 -263 130 -442q149 -202 421 -202
t419 202q130 177 130 441t-130 441q-149 202 -421 202t-419 -202q-130 -177 -130 -440z" />
    <glyph glyph-name="ohorn" unicode="&#x1a1;" horiz-adv-x="1341" 
d="M1069 537q0 -124 -33 -225q-69 -211 -253 -297q-93 -44 -214 -44t-214 44q-182 86 -253 297q-33 101 -32 216q0 239 133 399t355 160t351 -135q20 -18 53 -50t59 -41t60 -9q68 0 86 50t19 155h98q0 -145 -37 -215t-153 -70q-39 0 -74 12q49 -123 49 -247zM570 78
q92 0 161 39q137 76 185 247q24 80 24 164q0 177 -98 314t-273 137q-91 0 -161 -39q-134 -76 -184 -243t-1 -335t185 -245q70 -39 162 -39z" />
    <glyph glyph-name="uni01A2" unicode="&#x1a2;" horiz-adv-x="1460" 
d="M1174 1343h-140v-1320q-126 -51 -286 -51t-290 62t-216 166q-172 209 -172 530t172 533q86 105 216 167t276 62t243 -30h336v-1851h-139v1732zM760 1374q-274 0 -421 -202q-130 -177 -130 -440t130 -442q149 -202 421 -202q78 0 135 14v1258q-57 14 -135 14z" />
    <glyph glyph-name="uni01A3" unicode="&#x1a3;" horiz-adv-x="1177" 
d="M1057 1057v-1446h-129v1337h-129v-925q-95 -51 -223 -51t-221 43q-182 86 -252 296.5t-1 426.5t253 304q93 44 199 44t194 -29h309zM548 78q70 0 122 14v873q-44 14 -118 14t-144 -39q-134 -76 -184 -243t-1 -335t185 -245q70 -39 140 -39z" />
    <glyph glyph-name="uni01A7" unicode="&#x1a7;" horiz-adv-x="1290" 
d="M626 -29q-231 0 -375 85q-104 64 -154 178q-29 70 -29 157q0 163 102 249t276 132l357 88q103 23 144 60q77 68 77 156t-31 144q-86 153 -336 154q-164 0 -278 -89t-121 -247h-139q0 215 156 335t384 120q272 0 407 -152q97 -109 97 -277q1 -70 -27 -128
q-53 -115 -179 -166q-60 -25 -123 -41l-326 -80q-130 -29 -188 -71t-86 -86t-28 -116t40 -127q112 -161 370 -161q78 0 166 20q186 41 254 185q37 75 35 188h139q6 -135 -35 -231q-123 -279 -549 -279z" />
    <glyph glyph-name="uni01A8" unicode="&#x1a8;" horiz-adv-x="985" 
d="M488 1087q260 0 361 -159q36 -57 36 -131q0 -180 -178 -251q-53 -22 -117 -38l-166 -37q-167 -39 -212 -114q-19 -33 -19 -83q0 -97 98 -151q77 -45 198 -45t208 66t96 198h129q-16 -195 -132 -283t-303 -88q-272 0 -385 169q-39 60 -39 138t27 130q76 144 275 172
l172 38q219 53 219 179q0 94 -75 138t-152 44t-127 -13q-104 -27 -148 -115q-23 -44 -25 -103h-129q4 86 35 149q93 190 353 190z" />
    <glyph glyph-name="Uhorn" unicode="&#x1af;" horiz-adv-x="1775" 
d="M1667 1462q0 -204 -47 -280t-193 -76q-80 0 -157 65v-645q0 -243 -140 -399t-430 -156t-435 164q-132 145 -132 391v936h139v-905q0 -362 248 -443q80 -26 181 -26q211 0 321 112t108 357v905h140v-194q66 -66 150 -67t106 67t22 194h119z" />
    <glyph glyph-name="uhorn" unicode="&#x1b0;" horiz-adv-x="1384" 
d="M1094 772q-55 0 -115 35v-807h-119v190h-4q-51 -106 -148 -162t-216 -57q-371 0 -371 400v686h129v-688q4 -143 66 -217t217 -74t241 131q74 112 76 293v555h129v-170q7 -15 37 -25t65 -10q68 0 86 50t19 155h98q0 -145 -37 -215t-153 -70z" />
    <glyph glyph-name="uni01B5" unicode="&#x1b5;" horiz-adv-x="1175" 
d="M143 696v119h412l418 528h-897v119h1052v-123l-413 -524h336v-119h-430l-455 -577h983v-119h-1139v123l453 573h-320z" />
    <glyph glyph-name="uni01B6" unicode="&#x1b6;" horiz-adv-x="948" 
d="M156 500v108h286l279 340h-643v109h807v-92l-291 -357h211v-108h-299l-320 -391h727v-109h-882v104l323 396h-198z" />
    <glyph glyph-name="clickdental" unicode="&#x1c0;" horiz-adv-x="454" 
d="M174 1610h109v-2046h-109v2046z" />
    <glyph glyph-name="clicklateral" unicode="&#x1c1;" horiz-adv-x="909" 
d="M629 1610h108v-2046h-108v2046zM174 1610h109v-2046h-109v2046z" />
    <glyph glyph-name="clickretroflex" unicode="&#x1c3;" horiz-adv-x="493" 
d="M162 0v217h172v-217h-172zM178 1462h139v-436l-30 -661h-78l-31 661v436z" />
    <glyph glyph-name="DZcaron" unicode="&#x1c4;" horiz-adv-x="2578" 
d="M1679 1853h131l177 -208l180 208h119l-234 -288h-141zM1479 1462h1052v-123l-962 -1220h983v-119h-1139v123l963 1220h-897v119zM147 1462h506q334 -8 503 -187t169 -544t-169 -544t-503 -187h-506v1462zM287 119h297q318 1 460 143t142 470t-144 470t-458 141h-297
v-1224z" />
    <glyph glyph-name="Dzcaron" unicode="&#x1c5;" horiz-adv-x="2351" 
d="M1571 1456h131l176 -209l180 209h119l-233 -289h-142zM2316 109v-109h-882v104l690 844h-643v109h807v-92l-699 -856h727zM147 1462h506q334 -8 503 -187t169 -544t-169 -544t-503 -187h-506v1462zM287 119h297q318 1 460 143t142 470t-144 470t-458 141h-297v-1224z" />
    <glyph glyph-name="dzcaron" unicode="&#x1c6;" horiz-adv-x="2123" 
d="M1343 1456h132l176 -209l180 209h119l-234 -289h-141zM2089 109v-109h-883v104l690 844h-643v109h807v-92l-698 -856h727zM1053 0h-119v201h-4q-41 -104 -147.5 -166t-228.5 -63t-211 43q-174 86 -237 299q-29 101 -28 214q0 241 122 400t353 159q192 0 308 -131
q38 -43 59 -100h4v606h129v-1462zM207 528q0 -294 188 -410q66 -40 163 -40t168 40q194 109 196 409t-196 412q-71 40 -168 40q-177 0 -270 -143q-81 -122 -81 -308z" />
    <glyph glyph-name="LJ" unicode="&#x1c7;" horiz-adv-x="2123" 
d="M1837 1462h139v-1054q0 -229 -98 -333t-328 -104t-329 153q-78 120 -78 345h139q2 -47 6 -113t29 -125q61 -143 246 -143q158 0 216 85t58 294v995zM147 1462h140v-1343h819v-119h-959v1462z" />
    <glyph glyph-name="Lj" unicode="&#x1c8;" horiz-adv-x="1478" 
d="M1225 1462h129v-207h-129v207zM1354 -96q0 -296 -226 -293l-88 4v106q43 -5 68 -2q76 0 96 44t21 110v1184h129v-1153zM147 1462h140v-1343h819v-119h-959v1462z" />
    <glyph glyph-name="lj" unicode="&#x1c9;" horiz-adv-x="757" 
d="M504 1462h129v-207h-129v207zM633 -96q0 -296 -225 -293l-89 4v106q43 -5 68 -2q76 0 96 44t21 110v1184h129v-1153zM125 1462h129v-1462h-129v1462z" />
    <glyph glyph-name="NJ" unicode="&#x1ca;" horiz-adv-x="2465" 
d="M2179 1462h139v-1054q0 -229 -98 -333t-328 -104t-329 153q-78 120 -78 345h139q2 -47 6 -113t29 -125q61 -143 246 -143q158 0 216 85t58 294v995zM145 1462h156l852 -1237h4v1237h139v-1462h-155l-852 1237h-4v-1237h-140v1462z" />
    <glyph glyph-name="Nj" unicode="&#x1cb;" horiz-adv-x="1820" 
d="M1567 1462h129v-207h-129v207zM1696 -96q0 -296 -226 -293l-88 4v106q43 -5 68 -2q76 0 96 44t21 110v1184h129v-1153zM145 1462h156l852 -1237h4v1237h139v-1462h-155l-852 1237h-4v-1237h-140v1462z" />
    <glyph glyph-name="nj" unicode="&#x1cc;" horiz-adv-x="1478" 
d="M1225 1462h129v-207h-129v207zM1354 -96q0 -296 -226 -293l-88 4v106q43 -5 68 -2q76 0 96 44t21 110v1184h129v-1153zM121 1057h129v-183h4q37 96 131 154t206 59q311 0 370 -237q18 -76 18 -170v-680h-129v659q0 320 -268 320q-150 0 -240 -102t-92 -261v-616h-129
v1057z" />
    <glyph glyph-name="Acaron" unicode="&#x1cd;" horiz-adv-x="1290" 
d="M342 1853h131l176 -208l180 208h119l-233 -288h-142zM354 573h576l-283 750zM575 1462h156l574 -1462h-150l-178 455h-666l-176 -455h-147z" />
    <glyph glyph-name="acaron" unicode="&#x1ce;" 
d="M252 1487h131l176 -209l180 209h119l-233 -289h-142zM531 1087q397 0 397 -339v-562q0 -78 76 -77q23 0 40 8v-109q-46 -8 -89 -8q-122 0 -141 110q-5 34 -5 74h-4q-79 -114 -159 -163t-226 -50q-245 0 -327 169q-27 58 -27 154t49 158t130 95t182 46t174 21t104 14
q92 19 93 126q2 185 -168 216q-50 9 -108 9q-122 0 -200 -58t-82 -188h-129q23 354 420 354zM799 578h-4q-15 -30 -103 -46t-175 -27q-322 -41 -322 -203q1 -107 69 -166q69 -58 154 -58q169 0 275 91t106 241v168z" />
    <glyph glyph-name="Icaron" unicode="&#x1cf;" horiz-adv-x="454" 
d="M-76 1853h131l176 -208l181 208h118l-233 -288h-141zM158 1462h139v-1462h-139v1462z" />
    <glyph glyph-name="icaron" unicode="&#x1d0;" horiz-adv-x="378" 
d="M-113 1456h131l177 -209l180 209h119l-234 -289h-141zM125 0v1057h129v-1057h-129z" />
    <glyph glyph-name="Ocaron" unicode="&#x1d1;" horiz-adv-x="1517" 
d="M455 1884h131l176 -209l180 209h119l-234 -289h-141zM209 732q0 -263 130 -442q149 -202 421 -202t419 202q130 177 130 441t-130 441q-149 202 -421 202t-419 -202q-130 -177 -130 -440zM1448 731q0 -322 -180 -540t-510 -218q-329 0 -508 218q-180 218 -180 539
t179 541t510 221q330 1 517 -229q172 -210 172 -532z" />
    <glyph glyph-name="ocaron" unicode="&#x1d2;" horiz-adv-x="1138" 
d="M266 1487h131l176 -209l181 209h118l-233 -289h-141zM570 78q92 0 161 39q137 76 185 247q24 80 24 164q0 177 -98 314t-273 137q-91 0 -161 -39q-134 -76 -184 -243t-1 -335t185 -245q70 -39 162 -39zM1069.5 528q0.5 -238 -131.5 -398t-368 -159q-236 0 -369 161
t-132 398t134 397t365 160t372 -165q129 -156 129.5 -394z" />
    <glyph glyph-name="Ucaron" unicode="&#x1d3;" horiz-adv-x="1402" 
d="M397 1853h131l177 -208l180 208h119l-234 -288h-141zM133 1462h139v-905q0 -362 248 -443q80 -26 181 -26q211 0 321 112t108 357v905h140v-936q0 -243 -140 -399t-430 -156t-435 164q-132 145 -132 391v936z" />
    <glyph glyph-name="ucaron" unicode="&#x1d4;" horiz-adv-x="1099" 
d="M246 1456h131l176 -209l180 209h119l-234 -289h-141zM121 371v686h129v-688q4 -143 66 -217t217 -74t241 131q74 112 76 293v555h129v-1057h-119v190h-4q-51 -106 -148 -162t-216 -57q-371 0 -371 400z" />
    <glyph glyph-name="Udieresismacron" unicode="&#x1d5;" horiz-adv-x="1402" 
d="M365 1874v92h671v-92h-671zM451 1565v207h137v-207h-137zM811 1565v207h139v-207h-139zM133 1462h139v-905q0 -362 248 -443q80 -26 181 -26q211 0 321 112t108 357v905h140v-936q0 -243 -140 -399t-430 -156t-435 164q-132 145 -132 391v936z" />
    <glyph glyph-name="udieresismacron" unicode="&#x1d6;" horiz-adv-x="1099" 
d="M213 1468v93h672v-93h-672zM299 1167v207h137v-207h-137zM659 1167v207h140v-207h-140zM121 371v686h129v-688q4 -143 66 -217t217 -74t241 131q74 112 76 293v555h129v-1057h-119v190h-4q-51 -106 -148 -162t-216 -57q-371 0 -371 400z" />
    <glyph glyph-name="Udieresisacute" unicode="&#x1d7;" horiz-adv-x="1402" 
d="M764 1884h-105l215 289h160zM451 1565v207h137v-207h-137zM811 1565v207h139v-207h-139zM133 1462h139v-905q0 -362 248 -443q80 -26 181 -26q211 0 321 112t108 357v905h140v-936q0 -243 -140 -399t-430 -156t-435 164q-132 145 -132 391v936z" />
    <glyph glyph-name="udieresisacute" unicode="&#x1d8;" horiz-adv-x="1099" 
d="M584 1468h-105l215 289h160zM299 1167v207h137v-207h-137zM659 1167v207h140v-207h-140zM121 371v686h129v-688q4 -143 66 -217t217 -74t241 131q74 112 76 293v555h129v-1057h-119v190h-4q-51 -106 -148 -162t-216 -57q-371 0 -371 400z" />
    <glyph glyph-name="Udieresiscaron" unicode="&#x1d9;" horiz-adv-x="1402" 
d="M397 2163h131l177 -209l180 209h119l-234 -289h-141zM451 1565v207h137v-207h-137zM811 1565v207h139v-207h-139zM133 1462h139v-905q0 -362 248 -443q80 -26 181 -26q211 0 321 112t108 357v905h140v-936q0 -243 -140 -399t-430 -156t-435 164q-132 145 -132 391v936z
" />
    <glyph glyph-name="udieresiscaron" unicode="&#x1da;" horiz-adv-x="1099" 
d="M246 1757h131l176 -209l180 209h119l-234 -289h-141zM299 1167v207h137v-207h-137zM659 1167v207h140v-207h-140zM121 371v686h129v-688q4 -143 66 -217t217 -74t241 131q74 112 76 293v555h129v-1057h-119v190h-4q-51 -106 -148 -162t-216 -57q-371 0 -371 400z" />
    <glyph glyph-name="Udieresisgrave" unicode="&#x1db;" horiz-adv-x="1402" 
d="M385 2163h158l215 -289h-105zM451 1565v207h137v-207h-137zM811 1565v207h139v-207h-139zM133 1462h139v-905q0 -362 248 -443q80 -26 181 -26q211 0 321 112t108 357v905h140v-936q0 -243 -140 -399t-430 -156t-435 164q-132 145 -132 391v936z" />
    <glyph glyph-name="udieresisgrave" unicode="&#x1dc;" horiz-adv-x="1099" 
d="M258 1757h158l215 -289h-105zM299 1167v207h137v-207h-137zM659 1167v207h140v-207h-140zM121 371v686h129v-688q4 -143 66 -217t217 -74t241 131q74 112 76 293v555h129v-1057h-119v190h-4q-51 -106 -148 -162t-216 -57q-371 0 -371 400z" />
    <glyph glyph-name="uni01DD" unicode="&#x1dd;" 
d="M540.5 80q149.5 0 239.5 110t107 267h-684q4 -157 96 -267t241.5 -110zM887 565q0 264 -191 377q-66 39 -157 39q-141 0 -221 -74t-111 -196h-129q41 180 150 278q110 98 311 98q241 0 359 -157.5t118 -391.5t-120 -400t-356 -167q-236 0 -356.5 176t-109.5 418h813z" />
    <glyph glyph-name="Adieresismacron" unicode="&#x1de;" horiz-adv-x="1290" 
d="M309 1874v92h672v-92h-672zM395 1565v207h137v-207h-137zM756 1565v207h139v-207h-139zM354 573h576l-283 750zM575 1462h156l574 -1462h-150l-178 455h-666l-176 -455h-147z" />
    <glyph glyph-name="adieresismacron" unicode="&#x1df;" 
d="M219 1499v92h672v-92h-672zM305 1198v207h137v-207h-137zM666 1198v207h139v-207h-139zM531 1087q397 0 397 -339v-562q0 -78 76 -77q23 0 40 8v-109q-46 -8 -89 -8q-122 0 -141 110q-5 34 -5 74h-4q-79 -114 -159 -163t-226 -50q-245 0 -327 169q-27 58 -27 154t49 158
t130 95t182 46t174 21t104 14q92 19 93 126q2 185 -168 216q-50 9 -108 9q-122 0 -200 -58t-82 -188h-129q23 354 420 354zM799 578h-4q-15 -30 -103 -46t-175 -27q-322 -41 -322 -203q1 -107 69 -166q69 -58 154 -58q169 0 275 91t106 241v168z" />
    <glyph glyph-name="Adotmacron" unicode="&#x1e0;" horiz-adv-x="1290" 
d="M309 1874v92h672v-92h-672zM575 1565v207h140v-207h-140zM354 573h576l-283 750zM575 1462h156l574 -1462h-150l-178 455h-666l-176 -455h-147z" />
    <glyph glyph-name="adotmacron" unicode="&#x1e1;" 
d="M219 1499v92h672v-92h-672zM485 1198v207h140v-207h-140zM531 1087q397 0 397 -339v-562q0 -78 76 -77q23 0 40 8v-109q-46 -8 -89 -8q-122 0 -141 110q-5 34 -5 74h-4q-79 -114 -159 -163t-226 -50q-245 0 -327 169q-27 58 -27 154t49 158t130 95t182 46t174 21t104 14
q92 19 93 126q2 185 -168 216q-50 9 -108 9q-122 0 -200 -58t-82 -188h-129q23 354 420 354zM799 578h-4q-15 -30 -103 -46t-175 -27q-322 -41 -322 -203q1 -107 69 -166q69 -58 154 -58q169 0 275 91t106 241v168z" />
    <glyph glyph-name="AEmacron" unicode="&#x1e2;" horiz-adv-x="1857" 
d="M864 1581v92h672v-92h-672zM911 582v761h-82l-387 -761h469zM1051 119h759v-119h-899v463h-530l-238 -463h-155l764 1462h1050v-119h-751v-528h704v-119h-704v-577z" />
    <glyph glyph-name="aemacron" unicode="&#x1e3;" horiz-adv-x="1781" 
d="M557 1198v92h672v-92h-672zM522 979q-122 0 -200 -58t-82 -188h-129q23 354 428 354q216 0 306 -108q36 -43 46 -111h4q38 106 141 162t232 56.5t216 -48.5q242 -136 238 -544h-794q-13 -180 78 -298t266 -118q254 0 313 264h129q-41 -180 -158 -275t-303 -96
q-293 0 -387 265h-4q-22 -125 -163 -199q-120 -64 -279 -66q-245 0 -327 169q-27 58 -27 154t49 158t130 95t182 46t174 21t104 14q92 19 93 126q2 185 -168 216q-50 9 -108 9zM799 578h-4q-15 -30 -103 -46t-175 -27q-322 -41 -322 -203q1 -107 69 -166q69 -58 154 -58
q169 0 275 91t106 241v168zM1593 602q0 152 -93 264t-243.5 112.5t-242.5 -111.5t-86 -265h665z" />
    <glyph glyph-name="Gcaron" unicode="&#x1e6;" horiz-adv-x="1517" 
d="M434 1884h131l176 -209l181 209h118l-233 -289h-141zM1397 0h-101l-18 266h-4q-138 -292 -506 -294q-172 0 -302 62t-216 166q-172 209 -172 530t172 533q86 105 216 167t274 63q393 0 563 -274q55 -90 75 -211h-139q-13 138 -144 252t-327 114q-274 0 -421 -202
q-130 -177 -130 -440t130 -442q149 -202 421 -202q238 0 374 149t132 388h-498v118h621v-743z" />
    <glyph glyph-name="gcaron" unicode="&#x1e7;" horiz-adv-x="1138" 
d="M240 1487h131l176 -209l180 209h119l-234 -289h-141zM1016 86q0 -375 -251 -471q-89 -35 -193 -35q-200 0 -326 82t-137 238h129q27 -162 204 -200q51 -11 105 -11q180 0 260 102t80 295v143h-4q-45 -97 -132 -157t-209 -60q-234 -2 -354 150t-119 386t128 388t350 151
q172 0 283 -131q34 -39 53 -82h4v183h129v-971zM541 121q162 0 254 123t92 298t-85 306t-256 131t-265 -137q-82 -116 -82 -298t84 -293q96 -130 258 -130z" />
    <glyph glyph-name="Kcaron" unicode="&#x1e8;" horiz-adv-x="1327" 
d="M449 1853h131l176 -208l180 208h119l-234 -288h-141zM147 1462h140v-786l850 786h188l-653 -604l684 -858h-180l-609 762l-280 -260v-502h-140v1462z" />
    <glyph glyph-name="kcaron" unicode="&#x1e9;" horiz-adv-x="1024" 
d="M279 1853h131l176 -208l180 208h119l-234 -288h-141zM123 1462h129v-917l586 512h172l-451 -391l481 -666h-161l-418 575l-209 -174v-401h-129v1462z" />
    <glyph glyph-name="Oogonek" unicode="&#x1ea;" horiz-adv-x="1517" 
d="M209 732q0 -263 130 -442q149 -202 421 -202t419 202q130 177 130 441t-130 441q-149 202 -421 202t-419 -202q-130 -177 -130 -440zM761 -455q-198 0 -198 168q0 81 110 179q42 38 110 80q-12 0 -23 -1q-330 2 -510 220t-180 539t179 541t510 221q330 1 517 -229
q172 -210 172 -532t-164 -520t-410 -232q-148 -116 -175 -204q-7 -27 -7 -65t28 -62t62 -23q65 0 113 84l59 -26q-81 -138 -193 -138z" />
    <glyph glyph-name="oogonek" unicode="&#x1eb;" horiz-adv-x="1138" 
d="M570 78q92 0 161 39q137 76 185 247q24 80 24 164q0 177 -98 314t-273 137q-91 0 -161 -39q-134 -76 -184 -243t-1 -335t185 -245q70 -39 162 -39zM572 -455q-112 0 -154 47t-43 124q0 77 109 176q42 38 111 80q-13 -1 -26 -1q-234 0 -368 161q-133 161 -132 398t134 397
t365 160t372 -165q129 -156 129 -394t-129 -393q-106 -128 -272 -155h18q-147 -115 -175 -205q-7 -27 -7 -65t28 -62t62 -23q65 0 113 84l59 -26q-82 -138 -194 -138z" />
    <glyph glyph-name="Oogonekmacron" unicode="&#x1ec;" horiz-adv-x="1517" 
d="M422 1595v93h672v-93h-672zM209 732q0 -263 130 -442q149 -202 421 -202t419 202q130 177 130 441t-130 441q-149 202 -421 202t-419 -202q-130 -177 -130 -440zM761 -455q-198 0 -198 168q0 81 110 179q42 38 110 80q-12 0 -23 -1q-330 2 -510 220t-180 539t179 541
t510 221q330 1 517 -229q172 -210 172 -532t-164 -520t-410 -232q-148 -116 -175 -204q-7 -27 -7 -65t28 -62t62 -23q65 0 113 84l59 -26q-81 -138 -193 -138z" />
    <glyph glyph-name="oogonekmacron" unicode="&#x1ed;" horiz-adv-x="1138" 
d="M233 1198v92h672v-92h-672zM570 78q92 0 161 39q137 76 185 247q24 80 24 164q0 177 -98 314t-273 137q-91 0 -161 -39q-134 -76 -184 -243t-1 -335t185 -245q70 -39 162 -39zM572 -455q-112 0 -154 47t-43 124q0 77 109 176q42 38 111 80q-13 -1 -26 -1q-234 0 -368 161
q-133 161 -132 398t134 397t365 160t372 -165q129 -156 129 -394t-129 -393q-106 -128 -272 -155h18q-147 -115 -175 -205q-7 -27 -7 -65t28 -62t62 -23q65 0 113 84l59 -26q-82 -138 -194 -138z" />
    <glyph glyph-name="jcaron" unicode="&#x1f0;" horiz-adv-x="378" 
d="M-113 1454h131l177 -209l180 209h119l-234 -289h-141zM254 -96q0 -296 -225 -293l-88 4v106q42 -5 67 -2q76 0 96 44t21 110v1184h129v-1153z" />
    <glyph glyph-name="DZ" unicode="&#x1f1;" horiz-adv-x="2578" 
d="M1479 1462h1052v-123l-962 -1220h983v-119h-1139v123l963 1220h-897v119zM147 1462h506q334 -8 503 -187t169 -544t-169 -544t-503 -187h-506v1462zM287 119h297q318 1 460 143t142 470t-144 470t-458 141h-297v-1224z" />
    <glyph glyph-name="Dz" unicode="&#x1f2;" horiz-adv-x="2351" 
d="M2316 109v-109h-882v104l690 844h-643v109h807v-92l-699 -856h727zM147 1462h506q334 -8 503 -187t169 -544t-169 -544t-503 -187h-506v1462zM287 119h297q318 1 460 143t142 470t-144 470t-458 141h-297v-1224z" />
    <glyph glyph-name="dz" unicode="&#x1f3;" horiz-adv-x="2123" 
d="M2089 109v-109h-883v104l690 844h-643v109h807v-92l-698 -856h727zM1053 0h-119v201h-4q-41 -104 -147.5 -166t-228.5 -63t-211 43q-174 86 -237 299q-29 101 -28 214q0 241 122 400t353 159q192 0 308 -131q38 -43 59 -100h4v606h129v-1462zM207 528q0 -294 188 -410
q66 -40 163 -40t168 40q194 109 196 409t-196 412q-71 40 -168 40q-177 0 -270 -143q-81 -122 -81 -308z" />
    <glyph glyph-name="Gacute" unicode="&#x1f4;" horiz-adv-x="1517" 
d="M760 1595h-105l215 289h160zM1397 0h-101l-18 266h-4q-138 -292 -506 -294q-172 0 -302 62t-216 166q-172 209 -172 530t172 533q86 105 216 167t274 63q393 0 563 -274q55 -90 75 -211h-139q-13 138 -144 252t-327 114q-274 0 -421 -202q-130 -177 -130 -440t130 -442
q149 -202 421 -202q238 0 374 149t132 388h-498v118h621v-743z" />
    <glyph glyph-name="gacute" unicode="&#x1f5;" horiz-adv-x="1138" 
d="M547 1192h-105l215 289h160zM1016 86q0 -375 -251 -471q-89 -35 -193 -35q-200 0 -326 82t-137 238h129q27 -162 204 -200q51 -11 105 -11q180 0 260 102t80 295v143h-4q-45 -97 -132 -157t-209 -60q-234 -2 -354 150t-119 386t128 388t350 151q172 0 283 -131
q34 -39 53 -82h4v183h129v-971zM541 121q162 0 254 123t92 298t-85 306t-256 131t-265 -137q-82 -116 -82 -298t84 -293q96 -130 258 -130z" />
    <glyph glyph-name="Ngrave" unicode="&#x1f8;" horiz-adv-x="1441" 
d="M449 1847h157l215 -288h-104zM145 1462h156l852 -1237h4v1237h139v-1462h-155l-852 1237h-4v-1237h-140v1462z" />
    <glyph glyph-name="ngrave" unicode="&#x1f9;" horiz-adv-x="1099" 
d="M287 1487h157l215 -289h-104zM121 1057h129v-183h4q37 96 131 154t206 59q311 0 370 -237q18 -76 18 -170v-680h-129v659q0 320 -268 320q-150 0 -240 -102t-92 -261v-616h-129v1057z" />
    <glyph glyph-name="Aringacute" unicode="&#x1fa;" horiz-adv-x="1290" 
d="M649 2093h-104l215 289h160zM506 1784q0 -60 40 -100t99 -40t99 40t40 100t-40 100t-99 39.5t-99 -40t-40 -99.5zM645 1565.5q-91 -0.5 -154 62.5t-63 157t64 155.5t154 61.5t154 -64t64 -154t-64 -154t-155 -64.5zM354 573h576l-283 750zM575 1462h156l574 -1462h-150
l-178 455h-666l-176 -455h-147z" />
    <glyph glyph-name="aringacute" unicode="&#x1fb;" 
d="M571 1731h-104l215 288h160zM416 1409q0 -59 40 -99t99 -40t99 40t40 99t-40 99t-99 40t-99 -40t-40 -99zM338 1409q0 45 16 85t46 70t70 47t85 17t85 -17t70 -47t47 -70t17 -85t-17 -85t-47 -70t-70 -47t-85 -17t-85 17t-70 47t-46 70t-16 85zM531 1087q397 0 397 -339
v-562q0 -78 76 -77q23 0 40 8v-109q-46 -8 -89 -8q-122 0 -141 110q-5 34 -5 74h-4q-79 -114 -159 -163t-226 -50q-245 0 -327 169q-27 58 -27 154t49 158t130 95t182 46t174 21t104 14q92 19 93 126q2 185 -168 216q-50 9 -108 9q-122 0 -200 -58t-82 -188h-129
q23 354 420 354zM799 578h-4q-15 -30 -103 -46t-175 -27q-322 -41 -322 -203q1 -107 69 -166q69 -58 154 -58q169 0 275 91t106 241v168z" />
    <glyph glyph-name="AEacute" unicode="&#x1fc;" horiz-adv-x="1857" 
d="M1202 1552h-104l215 289h160zM911 582v761h-82l-387 -761h469zM1051 119h759v-119h-899v463h-530l-238 -463h-155l764 1462h1050v-119h-751v-528h704v-119h-704v-577z" />
    <glyph glyph-name="aeacute" unicode="&#x1fd;" horiz-adv-x="1781" 
d="M946 1198h-104l215 289h160zM522 979q-122 0 -200 -58t-82 -188h-129q23 354 428 354q216 0 306 -108q36 -43 46 -111h4q38 106 141 162t232 56.5t216 -48.5q242 -136 238 -544h-794q-13 -180 78 -298t266 -118q254 0 313 264h129q-41 -180 -158 -275t-303 -96
q-293 0 -387 265h-4q-22 -125 -163 -199q-120 -64 -279 -66q-245 0 -327 169q-27 58 -27 154t49 158t130 95t182 46t174 21t104 14q92 19 93 126q2 185 -168 216q-50 9 -108 9zM799 578h-4q-15 -30 -103 -46t-175 -27q-322 -41 -322 -203q1 -107 69 -166q69 -58 154 -58
q169 0 275 91t106 241v168zM1593 602q0 152 -93 264t-243.5 112.5t-242.5 -111.5t-86 -265h665z" />
    <glyph glyph-name="Oslashacute" unicode="&#x1fe;" horiz-adv-x="1517" 
d="M793 1595h-105l215 289h160zM1448 733q0 -324 -180 -542t-492 -219t-489 180l-156 -175l-55 50l162 180q-168 207 -168 525t179 539q179 220 511 222q291 0 471 -180l145 160l54 -48l-150 -165q168 -203 168 -527zM209 737q0 -258 119 -430l815 907q-147 160 -383 160
q-274 0 -421 -202q-130 -177 -130 -435zM1309 728q0 260 -121 429l-813 -907q145 -162 385 -162q272 0 419 202q130 178 130 438z" />
    <glyph glyph-name="oslashacute" unicode="&#x1ff;" horiz-adv-x="1138" 
d="M557 1198h-104l215 289h159zM1069 518q0 -226 -131.5 -386.5t-357.5 -160.5t-355 138l-121 -129l-45 38l125 138q-116 151 -115 381t134 390t359 160t356 -139l106 115l45 -41l-111 -121q111 -157 111 -383zM576 78q168 0 266 134t98 306t-72 285l-559 -604
q99 -121 267 -121zM562 979q-168 0 -266.5 -136.5t-97.5 -306.5t74 -284l559 604q-101 123 -269 123z" />
    <glyph glyph-name="Adblgrave" unicode="&#x200;" horiz-adv-x="1290" 
d="M668 1565h-105l-258 288h156zM985 1565h-102l-258 288h155zM354 573h576l-283 750zM575 1462h156l574 -1462h-150l-178 455h-666l-176 -455h-147z" />
    <glyph glyph-name="adblgrave" unicode="&#x201;" 
d="M578 1196h-105l-258 289h156zM895 1196h-102l-258 289h155zM531 1087q397 0 397 -339v-562q0 -78 76 -77q23 0 40 8v-109q-46 -8 -89 -8q-122 0 -141 110q-5 34 -5 74h-4q-79 -114 -159 -163t-226 -50q-245 0 -327 169q-27 58 -27 154t49 158t130 95t182 46t174 21
t104 14q92 19 93 126q2 185 -168 216q-50 9 -108 9q-122 0 -200 -58t-82 -188h-129q23 354 420 354zM799 578h-4q-15 -30 -103 -46t-175 -27q-322 -41 -322 -203q1 -107 69 -166q69 -58 154 -58q169 0 275 91t106 241v168z" />
    <glyph glyph-name="Ainvertedbreve" unicode="&#x202;" horiz-adv-x="1290" 
d="M660 1733q-154 0 -207 -96q-18 -32 -21 -72h-80q10 125 87 193t201 68t203 -69.5t95 -191.5h-80q-12 80 -76 124t-122 44zM354 573h576l-283 750zM575 1462h156l574 -1462h-150l-178 455h-666l-176 -455h-147z" />
    <glyph glyph-name="ainvertedbreve" unicode="&#x203;" 
d="M570 1364q-150 0 -208 -95q-18 -32 -20 -73h-80q10 124 87 192t201 68t203 -68t95 -192h-80q-12 80 -76 124t-122 44zM531 1087q397 0 397 -339v-562q0 -78 76 -77q23 0 40 8v-109q-46 -8 -89 -8q-122 0 -141 110q-5 34 -5 74h-4q-79 -114 -159 -163t-226 -50
q-245 0 -327 169q-27 58 -27 154t49 158t130 95t182 46t174 21t104 14q92 19 93 126q2 185 -168 216q-50 9 -108 9q-122 0 -200 -58t-82 -188h-129q23 354 420 354zM799 578h-4q-15 -30 -103 -46t-175 -27q-322 -41 -322 -203q1 -107 69 -166q69 -58 154 -58q169 0 275 91
t106 241v168z" />
    <glyph glyph-name="Edblgrave" unicode="&#x204;" horiz-adv-x="1214" 
d="M680 1565h-105l-258 288h156zM997 1565h-102l-258 288h156zM147 1462h1010v-119h-870v-528h815v-119h-815v-577h880v-119h-1020v1462z" />
    <glyph glyph-name="edblgrave" unicode="&#x205;" 
d="M565 1196h-104l-258 289h155zM883 1196h-103l-258 289h156zM546.5 978q-148.5 0 -240.5 -110t-107 -266h684q-4 152 -96 264t-240.5 112zM199 494q0 -263 190 -377q66 -39 158 -39q141 0 221 74t111 196h129q-41 -180 -151 -278t-310 -99q-241 0 -360 160.5t-118 392.5
t113 388q126 175 364 175t364 -185q111 -164 102 -408h-813z" />
    <glyph glyph-name="Einvertedbreve" unicode="&#x206;" horiz-adv-x="1214" 
d="M673 1733q-154 0 -208 -96q-18 -32 -21 -72h-79q11 125 87 193t200 68t203 -69.5t95 -191.5h-80q-12 80 -75 124t-122 44zM147 1462h1010v-119h-870v-528h815v-119h-815v-577h880v-119h-1020v1462z" />
    <glyph glyph-name="einvertedbreve" unicode="&#x207;" 
d="M558 1364q-153 0 -208 -95q-18 -32 -20 -73h-80q10 124 87 192t201 68t202 -68t96 -192h-80q-12 80 -76 124t-122 44zM546.5 978q-148.5 0 -240.5 -110t-107 -266h684q-4 152 -96 264t-240.5 112zM199 494q0 -263 190 -377q66 -39 158 -39q141 0 221 74t111 196h129
q-41 -180 -151 -278t-310 -99q-241 0 -360 160.5t-118 392.5t113 388q126 175 364 175t364 -185q111 -164 102 -408h-813z" />
    <glyph glyph-name="Idblgrave" unicode="&#x208;" horiz-adv-x="454" 
d="M250 1565h-105l-258 288h156zM567 1565h-102l-258 288h155zM158 1462h139v-1462h-139v1462z" />
    <glyph glyph-name="idblgrave" unicode="&#x209;" horiz-adv-x="378" 
d="M211 1165h-105l-258 289h156zM528 1165h-102l-258 289h156zM125 0v1057h129v-1057h-129z" />
    <glyph glyph-name="Iinvertedbreve" unicode="&#x20a;" horiz-adv-x="454" 
d="M243 1733q-154 0 -208 -96q-18 -32 -21 -72h-80q10 125 87 193t201 68t203 -69.5t95 -191.5h-80q-12 80 -75 124t-122 44zM158 1462h139v-1462h-139v1462z" />
    <glyph glyph-name="iinvertedbreve" unicode="&#x20b;" horiz-adv-x="378" 
d="M204 1333q-153 0 -208 -95q-18 -32 -21 -73h-79q10 125 87 193t201 68t202 -69t95 -192h-80q-12 80 -75 124t-122 44zM125 0v1057h129v-1057h-129z" />
    <glyph glyph-name="Odblgrave" unicode="&#x20c;" horiz-adv-x="1517" 
d="M780 1595h-104l-258 289h155zM1098 1595h-103l-258 289h156zM209 732q0 -263 130 -442q149 -202 421 -202t419 202q130 177 130 441t-130 441q-149 202 -421 202t-419 -202q-130 -177 -130 -440zM1448 731q0 -322 -180 -540t-510 -218q-329 0 -508 218q-180 218 -180 539
t179 541t510 221q330 1 517 -229q172 -210 172 -532z" />
    <glyph glyph-name="odblgrave" unicode="&#x20d;" horiz-adv-x="1138" 
d="M592 1196h-105l-258 289h156zM909 1196h-102l-258 289h156zM570 78q92 0 161 39q137 76 185 247q24 80 24 164q0 177 -98 314t-273 137q-91 0 -161 -39q-134 -76 -184 -243t-1 -335t185 -245q70 -39 162 -39zM1069.5 528q0.5 -238 -131.5 -398t-368 -159q-236 0 -369 161
t-132 398t134 397t365 160t372 -165q129 -156 129.5 -394z" />
    <glyph glyph-name="Oinvertedbreve" unicode="&#x20e;" horiz-adv-x="1517" 
d="M774 1763q-153 0 -209 -95q-18 -32 -20 -73h-80q10 125 87.5 193t201.5 68t202 -69t95 -192h-80q-11 80 -75 124t-122 44zM209 732q0 -263 130 -442q149 -202 421 -202t419 202q130 177 130 441t-130 441q-149 202 -421 202t-419 -202q-130 -177 -130 -440zM1448 731
q0 -322 -180 -540t-510 -218q-329 0 -508 218q-180 218 -180 539t179 541t510 221q330 1 517 -229q172 -210 172 -532z" />
    <glyph glyph-name="oinvertedbreve" unicode="&#x20f;" horiz-adv-x="1138" 
d="M585 1364q-153 0 -208 -95q-18 -32 -21 -73h-80q10 124 88 192t201 68t202 -68t95 -192h-80q-12 80 -75 124t-122 44zM570 78q92 0 161 39q137 76 185 247q24 80 24 164q0 177 -98 314t-273 137q-91 0 -161 -39q-134 -76 -184 -243t-1 -335t185 -245q70 -39 162 -39z
M1069.5 528q0.5 -238 -131.5 -398t-368 -159q-236 0 -369 161t-132 398t134 397t365 160t372 -165q129 -156 129.5 -394z" />
    <glyph glyph-name="Rdblgrave" unicode="&#x210;" horiz-adv-x="1366" 
d="M745 1565h-104l-258 288h156zM1063 1565h-102l-259 288h156zM287 768h520q135 0 226 79t90 210t-79 209t-237 77h-520v-575zM147 1462h670q303 0 409 -210q36 -74 36 -192t-72 -220t-213 -131v-4q196 -27 238 -208q17 -72 22 -207q8 -222 63 -290h-153q-23 39 -29 98
t-14 200t-48 221q-68 137 -241 130h-528v-649h-140v1462z" />
    <glyph glyph-name="rdblgrave" unicode="&#x211;" horiz-adv-x="645" 
d="M406 1186h-105l-258 289h156zM723 1186h-102l-259 289h156zM123 1057h119v-248h4q49 129 152 199t247 63v-129q-173 8 -283 -100t-110 -279v-563h-129v1057z" />
    <glyph glyph-name="Rinvertedbreve" unicode="&#x212;" horiz-adv-x="1366" 
d="M738 1733q-152 0 -208 -96q-18 -32 -20 -72h-80q10 125 87 193t201 68t203 -69.5t95 -191.5h-80q-12 80 -76 124t-122 44zM287 768h520q135 0 226 79t90 210t-79 209t-237 77h-520v-575zM147 1462h670q303 0 409 -210q36 -74 36 -192t-72 -220t-213 -131v-4
q196 -27 238 -208q17 -72 22 -207q8 -222 63 -290h-153q-23 39 -29 98t-14 200t-48 221q-68 137 -241 130h-528v-649h-140v1462z" />
    <glyph glyph-name="rinvertedbreve" unicode="&#x213;" horiz-adv-x="645" 
d="M378 1446q124 0 203 -69t95 -191h-80q-12 80 -76 124t-122 44q-152 0 -208 -96q-18 -32 -20 -72h-80q10 124 87 192t201 68zM123 1057h119v-248h4q49 129 152 199t247 63v-129q-173 8 -283 -100t-110 -279v-563h-129v1057z" />
    <glyph glyph-name="Udblgrave" unicode="&#x214;" horiz-adv-x="1402" 
d="M723 1565h-105l-258 288h156zM1040 1565h-102l-258 288h156zM133 1462h139v-905q0 -362 248 -443q80 -26 181 -26q211 0 321 112t108 357v905h140v-936q0 -243 -140 -399t-430 -156t-435 164q-132 145 -132 391v936z" />
    <glyph glyph-name="udblgrave" unicode="&#x215;" horiz-adv-x="1099" 
d="M571 1165h-104l-258 289h156zM889 1165h-103l-258 289h156zM121 371v686h129v-688q4 -143 66 -217t217 -74t241 131q74 112 76 293v555h129v-1057h-119v190h-4q-51 -106 -148 -162t-216 -57q-371 0 -371 400z" />
    <glyph glyph-name="Uinvertedbreve" unicode="&#x216;" horiz-adv-x="1402" 
d="M716 1733q-154 0 -208 -96q-18 -32 -21 -72h-79q10 125 87 193t201 68t202 -70q78 -69 95 -191h-80q-12 80 -75 124t-122 44zM133 1462h139v-905q0 -362 248 -443q80 -26 181 -26q211 0 321 112t108 357v905h140v-936q0 -243 -140 -399t-430 -156t-435 164
q-132 145 -132 391v936z" />
    <glyph glyph-name="uinvertedbreve" unicode="&#x217;" horiz-adv-x="1099" 
d="M564 1333q-153 0 -208 -95q-18 -32 -20 -73h-80q10 125 87 193t201 68t202 -69t96 -192h-80q-12 80 -76 124t-122 44zM121 371v686h129v-688q4 -143 66 -217t217 -74t241 131q74 112 76 293v555h129v-1057h-119v190h-4q-51 -106 -148 -162t-216 -57q-371 0 -371 400z" />
    <glyph glyph-name="Scommaaccent" unicode="&#x218;" horiz-adv-x="1290" 
d="M733 -344q0 -149 -101 -238q-34 -29 -81 -41v88q45 13 73 76t23 117h-86v217h172v-219zM1077 385q0 114 -99 182q-69 49 -202 82l-325 80q-154 39 -230 107q-102 93 -100 245q0 253 252 368q97 44 229 44q250 0 406 -120t157 -335h-139q-8 158 -123 248t-276 88
q-250 0 -336 -153q-31 -55 -31 -122q0 -156 136 -212q40 -16 85 -27l357 -88q272 -70 349 -231q30 -63 30 -154q0 -135 -82 -242q-133 -174 -477 -174q-130 0 -240 30q-228 62 -308 249q-42 96 -36 231h139q-7 -388 477 -393q143 0 251 69q136 84 136 228z" />
    <glyph glyph-name="scommaaccent" unicode="&#x219;" horiz-adv-x="985" 
d="M584 -344q0 -93 -34 -151t-68 -87t-81 -41v88q45 13 73 77t24 116h-86v217h172v-219zM229 801q0 -108 148 -161q39 -13 72 -22l172 -38q198 -29 274 -172q27 -52 27 -130t-39 -138q-107 -166 -390 -168q-181 -1 -297 87t-133 283h130q8 -131 95 -198t216 -66
q180 0 261 107q28 37 28 89q0 126 -147 172q-42 14 -85 25l-166 37q-135 34 -215 96t-80 199.5t129 216.5q109 67 269 67q260 0 352 -190q31 -63 35 -149h-129q-2 59 -25 103q-67 128 -242 128t-237 -96q-23 -35 -23 -82z" />
    <glyph glyph-name="Tcommaaccent" unicode="&#x21a;" horiz-adv-x="1138" 
d="M662 -315q0 -148 -102 -238q-34 -29 -81 -41v88q45 13 73 76t23 117h-86v217h173v-219zM-8 1462h1157v-119h-510v-1343h-139v1343h-508v119z" />
    <glyph glyph-name="tcommaaccent" unicode="&#x21b;" horiz-adv-x="606" 
d="M371 -326q0 -94 -34 -152t-68 -86t-81 -40v88q45 13 73 77t24 115h-86v218h172v-220zM199 948h-185v109h185v317h129v-317h215v-109h-215v-712q0 -64 17 -100t79 -38t119 4v-108l-115 -4q-129 0 -180 50t-49 185v723z" />
    <glyph glyph-name="Hcaron" unicode="&#x21e;" horiz-adv-x="1441" 
d="M418 1853h131l176 -208l180 208h119l-233 -288h-142zM147 1462h140v-635h868v635h139v-1462h-139v709h-868v-709h-140v1462z" />
    <glyph glyph-name="hcaron" unicode="&#x21f;" horiz-adv-x="1099" 
d="M246 1853h131l176 -208l180 208h119l-234 -288h-141zM121 1462h129v-588h4q37 96 131 154t206 59q311 0 370 -237q18 -76 18 -170v-680h-129v659q0 320 -268 320q-150 0 -240 -102t-92 -261v-616h-129v1462z" />
    <glyph glyph-name="Adotaccent" unicode="&#x226;" horiz-adv-x="1290" 
d="M575 1565v207h140v-207h-140zM354 573h576l-283 750zM575 1462h156l574 -1462h-150l-178 455h-666l-176 -455h-147z" />
    <glyph glyph-name="adotaccent" unicode="&#x227;" 
d="M485 1198v207h140v-207h-140zM531 1087q397 0 397 -339v-562q0 -78 76 -77q23 0 40 8v-109q-46 -8 -89 -8q-122 0 -141 110q-5 34 -5 74h-4q-79 -114 -159 -163t-226 -50q-245 0 -327 169q-27 58 -27 154t49 158t130 95t182 46t174 21t104 14q92 19 93 126
q2 185 -168 216q-50 9 -108 9q-122 0 -200 -58t-82 -188h-129q23 354 420 354zM799 578h-4q-15 -30 -103 -46t-175 -27q-322 -41 -322 -203q1 -107 69 -166q69 -58 154 -58q169 0 275 91t106 241v168z" />
    <glyph glyph-name="Ecedilla" unicode="&#x228;" horiz-adv-x="1214" 
d="M619 -340q129 0 129 88q0 76 -106 78q-52 0 -87 -16l-33 30l125 160h-500v1462h1010v-119h-870v-528h815v-119h-815v-577h880v-119h-448l-90 -117q151 25 214 -51q23 -29 23 -76q0 -88 -68 -132t-137 -44q-130 0 -210 43l26 66q79 -29 142 -29z" />
    <glyph glyph-name="ecedilla" unicode="&#x229;" 
d="M546.5 978q-148.5 0 -240.5 -110t-107 -266h684q-4 152 -96 264t-240.5 112zM633 -278q0 82 -105 83q-51 0 -88 -16l-32 31l118 152q-225 6 -342 162t-115 389q1 233 113 389q126 175 364 175t364 -185q111 -164 102 -408h-813q0 -263 190 -377q66 -39 158 -39
q141 0 221 74t111 196h129q-80 -351 -409 -375l-85 -110q154 25 214 -51q24 -29 24 -76q0 -88 -68 -132t-138 -44q-130 0 -210 43l26 65q76 -28 140 -28q131 0 131 82z" />
    <glyph glyph-name="Odieresismacron" unicode="&#x22a;" horiz-adv-x="1517" 
d="M422 1905v92h672v-92h-672zM508 1595v207h137v-207h-137zM868 1595v207h140v-207h-140zM209 732q0 -263 130 -442q149 -202 421 -202t419 202q130 177 130 441t-130 441q-149 202 -421 202t-419 -202q-130 -177 -130 -440zM1448 731q0 -322 -180 -540t-510 -218
q-329 0 -508 218q-180 218 -180 539t179 541t510 221q330 1 517 -229q172 -210 172 -532z" />
    <glyph glyph-name="odieresismacron" unicode="&#x22b;" horiz-adv-x="1138" 
d="M233 1499v92h672v-92h-672zM319 1198v207h138v-207h-138zM680 1198v207h139v-207h-139zM570 78q92 0 161 39q137 76 185 247q24 80 24 164q0 177 -98 314t-273 137q-91 0 -161 -39q-134 -76 -184 -243t-1 -335t185 -245q70 -39 162 -39zM1069.5 528q0.5 -238 -131.5 -398
t-368 -159q-236 0 -369 161t-132 398t134 397t365 160t372 -165q129 -156 129.5 -394z" />
    <glyph glyph-name="Otildemacron" unicode="&#x22c;" horiz-adv-x="1517" 
d="M422 1903v92h672v-92h-672zM895 1702q79 0 106 98h78q-22 -130 -106 -177q-31 -17 -86 -17t-143 47t-127 47t-69 -27t-30 -78h-80q9 81 44 122q64 75 132 75t131 -31q62 -31 92 -45t58 -14zM209 732q0 -263 130 -442q149 -202 421 -202t419 202q130 177 130 441t-130 441
q-149 202 -421 202t-419 -202q-130 -177 -130 -440zM1448 731q0 -322 -180 -540t-510 -218q-329 0 -508 218q-180 218 -180 539t179 541t510 221q330 1 517 -229q172 -210 172 -532z" />
    <glyph glyph-name="otildemacron" unicode="&#x22d;" horiz-adv-x="1138" 
d="M233 1497v92h672v-92h-672zM707 1305q77 0 106 98h78q-22 -131 -105 -177t-227 29q-91 47 -131 47t-69.5 -26.5t-28.5 -77.5h-80q14 127 109 179q68 36 139.5 9t125.5 -54t83 -27zM570 78q92 0 161 39q137 76 185 247q24 80 24 164q0 177 -98 314t-273 137
q-91 0 -161 -39q-134 -76 -184 -243t-1 -335t185 -245q70 -39 162 -39zM1069.5 528q0.5 -238 -131.5 -398t-368 -159q-236 0 -369 161t-132 398t134 397t365 160t372 -165q129 -156 129.5 -394z" />
    <glyph glyph-name="Odotaccent" unicode="&#x22e;" horiz-adv-x="1517" 
d="M688 1595v207h139v-207h-139zM209 732q0 -263 130 -442q149 -202 421 -202t419 202q130 177 130 441t-130 441q-149 202 -421 202t-419 -202q-130 -177 -130 -440zM1448 731q0 -322 -180 -540t-510 -218q-329 0 -508 218q-180 218 -180 539t179 541t510 221
q330 1 517 -229q172 -210 172 -532z" />
    <glyph glyph-name="odotaccent" unicode="&#x22f;" horiz-adv-x="1138" 
d="M500 1198v207h139v-207h-139zM570 78q92 0 161 39q137 76 185 247q24 80 24 164q0 177 -98 314t-273 137q-91 0 -161 -39q-134 -76 -184 -243t-1 -335t185 -245q70 -39 162 -39zM1069.5 528q0.5 -238 -131.5 -398t-368 -159q-236 0 -369 161t-132 398t134 397t365 160
t372 -165q129 -156 129.5 -394z" />
    <glyph glyph-name="Odotaccentmacron" unicode="&#x230;" horiz-adv-x="1517" 
d="M422 1905v92h672v-92h-672zM688 1595v207h139v-207h-139zM209 732q0 -263 130 -442q149 -202 421 -202t419 202q130 177 130 441t-130 441q-149 202 -421 202t-419 -202q-130 -177 -130 -440zM1448 731q0 -322 -180 -540t-510 -218q-329 0 -508 218q-180 218 -180 539
t179 541t510 221q330 1 517 -229q172 -210 172 -532z" />
    <glyph glyph-name="odotaccentmacron" unicode="&#x231;" horiz-adv-x="1138" 
d="M233 1499v92h672v-92h-672zM500 1198v207h139v-207h-139zM570 78q92 0 161 39q137 76 185 247q24 80 24 164q0 177 -98 314t-273 137q-91 0 -161 -39q-134 -76 -184 -243t-1 -335t185 -245q70 -39 162 -39zM1069.5 528q0.5 -238 -131.5 -398t-368 -159q-236 0 -369 161
t-132 398t134 397t365 160t372 -165q129 -156 129.5 -394z" />
    <glyph glyph-name="Ymacron" unicode="&#x232;" horiz-adv-x="1251" 
d="M291 1565v92h672v-92h-672zM694 0h-139v602l-573 860h163l482 -741l479 741h166l-578 -860v-602z" />
    <glyph glyph-name="ymacron" unicode="&#x233;" horiz-adv-x="948" 
d="M137 1167v93h672v-93h-672zM206 -281q94 0 144 99q14 31 31 67l45 119l-422 1053h137l348 -901l326 901h129l-459 -1217q-59 -138 -98 -172t-79 -45.5t-112 -9.5t-87 8v109q63 -11 97 -11z" />
    <glyph glyph-name="uni0237" unicode="&#x237;" horiz-adv-x="378" 
d="M254 -96q0 -296 -225 -293l-88 4v106q42 -5 67 -2q76 0 96 44t21 110v1184h129v-1153z" />
    <glyph glyph-name="uni0259" unicode="&#x259;" horiz-adv-x="1083" 
d="M885 567q0 264 -191 377q-66 39 -157 39q-141 0 -221 -74t-111 -196h-129q41 180 150 278q110 98 311 99q241 0 359 -159t118 -392t-120 -399t-358 -166.5t-366 185.5q-115 167 -104 408h819zM538 82q148 0 239 110q90 110 108 267h-684q5 -157 97 -267t240 -110z" />
    <glyph glyph-name="commaturnedmod" unicode="&#x2bb;" horiz-adv-x="569" 
d="M195 965v219q0 153 102 237q35 29 80 41v-88q-45 -18 -73 -78t-23 -114h86v-217h-172z" />
    <glyph glyph-name="afii57929" unicode="&#x2bc;" horiz-adv-x="569" 
d="M375 1462v-219q0 -153 -102 -237q-34 -29 -80 -41v88q69 20 93 138q5 30 3 54h-86v217h172z" />
    <glyph glyph-name="circumflex" unicode="&#x2c6;" horiz-adv-x="378" 
d="M494 1204h-134l-176 209l-180 -209h-117l232 289h141z" />
    <glyph glyph-name="caron" unicode="&#x2c7;" horiz-adv-x="378" 
d="M-113 1493h131l177 -209l180 209h119l-234 -289h-141z" />
    <glyph glyph-name="breve" unicode="&#x2d8;" horiz-adv-x="378" 
d="M206 1311q58 0 121.5 44t75.5 124h80q-16 -123 -95 -191.5t-203 -68.5t-200.5 67.5t-86.5 192.5h79q4 -79 64 -123.5t165 -44.5z" />
    <glyph glyph-name="dotaccent" unicode="&#x2d9;" horiz-adv-x="378" 
d="M121 1239v207h139v-207h-139z" />
    <glyph glyph-name="ring" unicode="&#x2da;" horiz-adv-x="378" 
d="M51 1386.5q0 -59.5 40 -99.5t99.5 -40t99.5 40t40 99.5t-40 99.5t-99.5 40t-99.5 -40t-40 -99.5zM-27 1386.5q0 45.5 16.5 85t46.5 69.5t69.5 47.5t85 17.5t85 -17.5t69.5 -47.5t47.5 -69.5t17.5 -85t-17.5 -85t-47.5 -69.5t-69.5 -47.5t-85 -17.5t-85 17.5t-69.5 47.5
t-46.5 69.5t-16.5 85z" />
    <glyph glyph-name="ogonek" unicode="&#x2db;" horiz-adv-x="378" 
d="M76 -262q0 79 77.5 150t155.5 116h78q-152 -119 -167 -175t-15 -94t27.5 -61.5t62.5 -23.5q64 0 113 84l59 -27q-81 -137 -195 -137q-196 0 -196 168z" />
    <glyph glyph-name="tilde" unicode="&#x2dc;" horiz-adv-x="378" 
d="M326 1352q77 0 106 98h78q-22 -129 -79.5 -162t-110 -33t-142.5 47.5t-130 47.5t-69.5 -27t-29.5 -78h-80q14 126 77.5 161.5t104.5 35.5t80 -14.5t73 -31t63.5 -30.5t58.5 -14z" />
    <glyph glyph-name="hungarumlaut" unicode="&#x2dd;" horiz-adv-x="378" 
d="M252 1204l207 289h155l-258 -289h-104zM-66 1204l205 289h156l-258 -289h-103z" />
    <glyph glyph-name="uni02EE" unicode="&#x2ee;" horiz-adv-x="757" 
d="M311 1462v-219q0 -151 -101 -237q-34 -29 -81 -41v88q46 15 73 77t23 115h-86v217h172zM627 1462v-219q0 -93 -34 -151t-68 -86t-81 -41v88q70 21 94 138q5 30 3 54h-86v217h172z" />
    <glyph glyph-name="gravecmb" unicode="&#x300;" horiz-adv-x="0" 
d="M-281 1493l215 -289h-104l-268 289h157z" />
    <glyph glyph-name="acutecmb" unicode="&#x301;" horiz-adv-x="0" 
d="M-309 1204l215 289h160l-271 -289h-104z" />
    <glyph glyph-name="circumflexcmb" unicode="&#x302;" horiz-adv-x="0" 
d="M-16 1204l-177 209l-180 -209h-116l231 289h141l234 -289h-133z" />
    <glyph glyph-name="tildecmb" unicode="&#x303;" horiz-adv-x="0" 
d="M-51 1352q77 0 106 98h78q-23 -130 -107 -177t-225 30q-89 47 -129 47t-70 -27t-30 -78h-80q14 128 110 179q67 36 138.5 9t125.5 -54t83 -27z" />
    <glyph glyph-name="macroncmb" unicode="&#x304;" horiz-adv-x="0" 
d="M-522 1391h672v-93h-672v93z" />
    <glyph glyph-name="brevecmb" unicode="&#x306;" horiz-adv-x="0" 
d="M-170 1311q58 0 121 44t76 124h79q-16 -123 -95 -192t-203 -69t-200 68t-87 193h80q2 -41 20 -73q54 -95 209 -95z" />
    <glyph glyph-name="dotaccentcmb" unicode="&#x307;" horiz-adv-x="0" 
d="M-256 1446h139v-207h-139v207z" />
    <glyph glyph-name="dieresiscmb" unicode="&#x308;" horiz-adv-x="0" 
d="M-436 1446h137v-207h-137v207zM-76 1446h139v-207h-139v207z" />
    <glyph glyph-name="hookabovecomb" unicode="&#x309;" horiz-adv-x="0" 
d="M-174 1448q100 0 147.5 -32t68 -64t20.5 -80t-24 -76q-61 -76 -214 -51l-12 -76h-72l-23 119l33 31q36 -17 88 -17q104 -1 105 78q0 48 -33 68t-100 20t-138 -29l-26 66q80 43 180 43z" />
    <glyph glyph-name="ringcmb" unicode="&#x30a;" horiz-adv-x="0" 
d="M-326 1386q0 -59 40 -99t100 -40t100 40q40 39 39 99q0 60 -40 100t-99 40t-100 -40q-40 -41 -40 -100zM-403 1386q0 92 62 154q63 62 155 64t154 -62t64 -154q1 -90 -63.5 -154t-154.5 -66t-154 62t-63 156z" />
    <glyph glyph-name="hungarumlautcmb" unicode="&#x30b;" horiz-adv-x="0" 
d="M82 1493h156l-258 -289h-105zM-238 1493h156l-258 -289h-102z" />
    <glyph glyph-name="caroncmb" unicode="&#x30c;" horiz-adv-x="0" 
d="M-358 1493l176 -209l180 209h119l-234 -289h-141l-231 289h131z" />
    <glyph glyph-name="uni030F" unicode="&#x30f;" horiz-adv-x="0" 
d="M-80 1204h-104l-258 289h155zM238 1204h-103l-258 289h156z" />
    <glyph glyph-name="uni0311" unicode="&#x311;" horiz-adv-x="0" 
d="M-170 1386q-155 0 -209 -95q-18 -32 -20 -72h-80q10 125 87.5 193t201.5 68t202 -69.5t94 -191.5h-79q-11 79 -75 123t-122 44z" />
    <glyph glyph-name="uni0312" unicode="&#x312;" horiz-adv-x="0" 
d="M-90 1184q0 153 102 237q35 29 80 41v-88q-45 -18 -73 -78t-23 -114h86v-217h-172v219z" />
    <glyph glyph-name="uni0313" unicode="&#x313;" horiz-adv-x="0" 
d="M92 1243q0 -151 -101 -237q-34 -29 -81 -41v88q46 15 73 77t23 115h-86v217h172v-219z" />
    <glyph glyph-name="uni0314" unicode="&#x314;" horiz-adv-x="0" 
d="M-90 1462h172v-217h-86q-8 -95 51 -163q18 -22 45 -29v-88q-86 22 -134 102t-48 176v219z" />
    <glyph glyph-name="uni0316" unicode="&#x316;" horiz-adv-x="0" 
d="M-29 31l215 -289h-104l-268 289h157z" />
    <glyph glyph-name="uni0317" unicode="&#x317;" horiz-adv-x="0" 
d="M-186 -258l215 289h159l-270 -289h-104z" />
    <glyph glyph-name="uni031B" unicode="&#x31b;" horiz-adv-x="0" 
d="M340 1462h119q0 -206 -47 -281t-185 -75q-164 0 -288 223l43 19q39 -35 77 -77q63 -69 150 -70t109 67t22 194z" />
    <glyph glyph-name="dotbelowcomb" unicode="&#x323;" horiz-adv-x="0" 
d="M-70 -16h140v-207h-140v207z" />
    <glyph glyph-name="uni0324" unicode="&#x324;" horiz-adv-x="0" 
d="M-250 -16h137v-207h-137v207zM111 -16h139v-207h-139v207z" />
    <glyph glyph-name="uni0325" unicode="&#x325;" horiz-adv-x="0" 
d="M-139 -75.5q0 -59.5 40 -99.5t99 -40t99 39.5t40 99.5t-40 100t-99 40t-99 -40t-40 -99.5zM0 143.5q91 -0.5 154.5 -64.5t63.5 -156t-64 -155.5t-155 -63.5t-154 64q-62 64 -62 156t63 156t154 63.5z" />
    <glyph glyph-name="uni0326" unicode="&#x326;" horiz-adv-x="0" 
d="M92 -219q0 -149 -101 -238q-34 -29 -81 -41v88q45 13 73 76t23 117h-86v217h172v-219z" />
    <glyph glyph-name="cedillacmb" unicode="&#x327;" horiz-adv-x="0" 
d="M-219 -340q129 0 129 88q0 76 -105 78q-51 0 -88 -16l-32 30l125 160h71l-90 -117q154 25 214 -51q24 -29 24 -76q-1 -88 -69 -132t-137 -44q-130 0 -210 43l27 66q78 -29 141 -29z" />
    <glyph glyph-name="ogonekcmb" unicode="&#x328;" horiz-adv-x="0" 
d="M-103 -430q-198 0 -198 168q0 79 110 179q46 42 123 87h78q-149 -116 -175 -205q-7 -27 -7 -65t28 -62t62 -22q67 0 113 84l59 -27q-81 -137 -193 -137z" />
    <glyph glyph-name="soliduslongoverlaycmb" unicode="&#x338;" horiz-adv-x="0" 
d="M-76 1493h105l-625 -1522h-109z" />
    <glyph glyph-name="Omegagreek" unicode="&#x3a9;" horiz-adv-x="1548" 
d="M121 119h403v168q-188 53 -296 210t-107 355q0 271 192 448t463 177t458 -175q89 -82 141 -198t52 -232q0 -220 -106 -376t-297 -209v-168h403v-119h-514v373q183 32 281 160t96 317q0 218 -147 363t-365 145t-369 -145t-151 -363q0 -287 214 -420q71 -43 163 -57v-373
h-514v119z" />
    <glyph glyph-name="pi" unicode="&#x3c0;" horiz-adv-x="1224" 
d="M1030 -12q-57 0 -90 19q-58 33 -67 130q-3 43 -3 90v721h-536v-948h-129v948h-144v109h1094v-109h-156v-735q-1 -45 11 -78t60 -33t93 21v-100q-76 -35 -133 -35z" />
    <glyph glyph-name="uni0400" unicode="&#x400;" horiz-adv-x="1214" 
d="M147 1462h1010v-119h-870v-528h815v-119h-815v-577h880v-119h-1020v1462zM578 1868l215 -289h-105l-268 289h158z" />
    <glyph glyph-name="afii10023" unicode="&#x401;" horiz-adv-x="1214" 
d="M147 1462h1010v-119h-870v-528h815v-119h-815v-577h880v-119h-1020v1462zM418 1821h137v-207h-137v207zM778 1821h140v-207h-140v207z" />
    <glyph glyph-name="afii10051" unicode="&#x402;" horiz-adv-x="1568" 
d="M934 104q205 0 303 98t98 272t-104 258.5t-276 84.5t-265 -109q-92 -110 -92 -321v-387h-139v1343h-469v119h1159v-119h-551v-620h6q72 154 277 198q59 13 141 13t171 -30q285 -96 284 -437q0 -229 -140 -358t-372 -129q-59 0 -119 8v121q58 -5 88 -5z" />
    <glyph glyph-name="afii10052" unicode="&#x403;" horiz-adv-x="1052" 
d="M160 1462h903v-119h-764v-1343h-139v1462zM487 1579l215 289h160l-270 -289h-105z" />
    <glyph glyph-name="afii10053" unicode="&#x404;" horiz-adv-x="1423" 
d="M70 718q0 334 174 546q86 104 213 166t262 63q252 0 427 -129t200 -344h-140q-35 166 -157 260q-123 94 -304 94q-221 0 -368 -153q-146 -154 -166 -408h770v-117h-774q8 -280 157 -444t386 -164q296 0 417 251q37 77 54 169h137q-36 -248 -197 -392t-425 -145
q-138 -1 -263 53q-255 109 -354 392q-49 139 -49 302z" />
    <glyph glyph-name="afii10054" unicode="&#x405;" horiz-adv-x="1290" 
d="M1077 385q0 114 -99 182q-69 49 -202 82l-325 80q-333 81 -330 352q0 253 252 368q97 44 229 44q250 0 406 -120t157 -335h-139q-8 159 -123 249t-276 87q-250 0 -336 -153q-31 -55 -31 -123q0 -155 136 -211q40 -16 85 -27l357 -88q379 -97 379 -380q-1 -83 -25 -144
q-52 -127 -159 -192q-139 -85 -394 -85t-416 126t-149 384h139q-7 -388 477 -393q143 0 251 69q136 84 136 228z" />
    <glyph glyph-name="afii10055" unicode="&#x406;" horiz-adv-x="454" 
d="M158 1462h139v-1462h-139v1462z" />
    <glyph glyph-name="afii10056" unicode="&#x407;" horiz-adv-x="454" 
d="M158 1462h139v-1462h-139v1462zM-23 1821h138v-207h-138v207zM338 1821h139v-207h-139v207z" />
    <glyph glyph-name="afii10057" unicode="&#x408;" horiz-adv-x="1024" 
d="M447 -29q-123 0 -202 42q-150 80 -186 270q-16 90 -16 186h139q2 -47 6 -113t29 -125q61 -143 246 -143q158 0 216 85t58 294v995h140v-1054q0 -227 -97 -332t-333 -105z" />
    <glyph glyph-name="afii10058" unicode="&#x409;" horiz-adv-x="2297" 
d="M94 -12q-54 0 -102 16v119q28 -14 76 -14t78 5q70 11 132 137q117 237 117 1004v207h899v-618h510q206 0 320 -113t114 -309t-114 -309t-320 -113h-649v1343h-625v-79q0 -1049 -244 -1229q-46 -35 -92 -41t-100 -6zM1774 119q154 0 240 81t85 222q0 141 -86 222t-239 81
h-480v-606h480z" />
    <glyph glyph-name="afii10059" unicode="&#x40a;" horiz-adv-x="2297" 
d="M147 1462h140v-618h868v618h139v-618h510q206 0 320 -113t114 -309t-114 -309t-320 -113h-649v725h-868v-725h-140v1462zM1774 119q154 0 240 81t85 222q0 141 -86 222t-239 81h-480v-606h480z" />
    <glyph glyph-name="afii10060" unicode="&#x40b;" horiz-adv-x="1568" 
d="M459 1343h-469v119h1159v-119h-551v-497q103 50 294 80q56 8 99 8q274 0 381 -136q74 -94 74 -284v-514h-139v506q1 127 -41 185q-88 122 -248 122t-340 -59q-49 -16 -80 -35v-719h-139v1343z" />
    <glyph glyph-name="afii10061" unicode="&#x40c;" horiz-adv-x="1327" 
d="M147 1462h140v-786l850 786h188l-653 -604l684 -858h-180l-609 762l-280 -260v-502h-140v1462zM578 1579l215 289h159l-270 -289h-104z" />
    <glyph glyph-name="uni040D" unicode="&#x40d;" horiz-adv-x="1454" 
d="M147 1462h140v-1312l839 1312h181v-1462h-140v1313l-839 -1313h-181v1462zM598 1868l215 -289h-104l-269 289h158z" />
    <glyph glyph-name="afii10062" unicode="&#x40e;" horiz-adv-x="1204" 
d="M262 -16q-74 0 -131 20v123q67 -25 147 -25t132.5 49.5t101.5 153.5l18 39l-542 1118h149l475 -970l463 970h148l-576 -1192q-119 -248 -215 -267t-170 -19zM627 1583q-254 0 -287 266h80q10 -78 64.5 -123t144.5 -45t146 44t73 124h80q-47 -266 -301 -266z" />
    <glyph glyph-name="afii10145" unicode="&#x40f;" horiz-adv-x="1421" 
d="M641 0h-494v1462h140v-1343h848v1343h139v-1462h-494v-389h-139v389z" />
    <glyph glyph-name="afii10017" unicode="&#x410;" horiz-adv-x="1290" 
d="M575 1462h156l574 -1462h-150l-178 455h-666l-176 -455h-147zM930 573l-283 750l-293 -750h576z" />
    <glyph glyph-name="afii10018" unicode="&#x411;" horiz-adv-x="1366" 
d="M147 1462h1010v-119h-870v-499h551q206 0 320 -113t114 -309t-115 -309t-319 -113h-691v1462zM807 119q154 0 240 81t86 222t-86 222t-240 81h-520v-606h520z" />
    <glyph glyph-name="afii10019" unicode="&#x412;" horiz-adv-x="1366" 
d="M147 1462h619q326 0 430 -187q39 -69 39 -149q0 -206 -151 -307q-46 -31 -103 -43v-4q141 -18 225 -116t84 -248t-84 -252q-125 -156 -440 -156h-619v1462zM766 119q271 0 354 153q31 57 31 148q0 141 -99 212t-286 70h-479v-583h479zM766 821q158 0 243 70t87 178
q0 274 -330 274h-479v-522h479z" />
    <glyph glyph-name="afii10020" unicode="&#x413;" horiz-adv-x="1052" 
d="M160 1462h903v-119h-764v-1343h-139v1462z" />
    <glyph glyph-name="afii10021" unicode="&#x414;" horiz-adv-x="1466" 
d="M0 119h154q193 354 212 885q5 141 5 266v192h905v-1343h174v-508h-139v389h-1172v-389h-139v508zM1137 119v1224h-627v-49q0 -367 -24 -543q-51 -382 -185 -632h836z" />
    <glyph glyph-name="afii10022" unicode="&#x415;" horiz-adv-x="1214" 
d="M147 1462h1010v-119h-870v-528h815v-119h-815v-577h880v-119h-1020v1462z" />
    <glyph glyph-name="afii10024" unicode="&#x416;" horiz-adv-x="2027" 
d="M944 1462h139v-770l721 770h189l-607 -631l658 -831h-180l-576 729l-205 -213v-516h-139v516l-205 213l-575 -729h-180l657 831l-606 631h188l721 -770v770z" />
    <glyph glyph-name="afii10025" unicode="&#x417;" horiz-adv-x="1284" 
d="M674 -31q-427 0 -552 290q-40 93 -40 210v12h133q0 -203 125 -301t319 -98t302 100t108 234t-94 212t-238 81h-233v118h233q123 0 209 68q86 69 85 199t-97 206t-258 76q-277 0 -374 -187q-32 -62 -38 -145h-135q12 220 159 335q148 114 374 114t366 -100t141 -297
q0 -165 -137 -267q-39 -29 -78 -43v-6q117 -32 186 -118t68 -234q0 -68 -27 -147q-63 -180 -259 -266q-104 -46 -248 -46z" />
    <glyph glyph-name="afii10026" unicode="&#x418;" horiz-adv-x="1454" 
d="M147 1462h140v-1312l839 1312h181v-1462h-140v1313l-839 -1313h-181v1462z" />
    <glyph glyph-name="afii10027" unicode="&#x419;" horiz-adv-x="1454" 
d="M147 0v1462h140v-1312l839 1312h181v-1462h-140v1313l-839 -1313h-181zM713 1583q-254 0 -287 266h80q10 -78 64.5 -123t144.5 -45t146.5 44t72.5 124h80q-47 -266 -301 -266z" />
    <glyph glyph-name="afii10028" unicode="&#x41a;" horiz-adv-x="1327" 
d="M147 1462h140v-786l850 786h188l-653 -604l684 -858h-180l-609 762l-280 -260v-502h-140v1462z" />
    <glyph glyph-name="afii10029" unicode="&#x41b;" horiz-adv-x="1441" 
d="M94 -12q-54 0 -102 16v119q28 -14 76 -14t78 5q70 11 132 137q117 237 117 1004v207h899v-1462h-139v1343h-625v-79q0 -1049 -244 -1229q-46 -35 -92 -41t-100 -6z" />
    <glyph glyph-name="afii10030" unicode="&#x41c;" horiz-adv-x="1705" 
d="M143 1462h205l506 -1282l504 1282h205v-1462h-140v1264h-4l-499 -1264h-132l-501 1264h-4v-1264h-140v1462z" />
    <glyph glyph-name="afii10031" unicode="&#x41d;" horiz-adv-x="1441" 
d="M147 1462h140v-635h868v635h139v-1462h-139v709h-868v-709h-140v1462z" />
    <glyph glyph-name="afii10032" unicode="&#x41e;" horiz-adv-x="1517" 
d="M70 730q0 321 179 541t510 221q330 1 517 -229q172 -210 172 -532t-172 -530q-190 -230 -518 -229t-508 219t-180 539zM1309 731q0 264 -130 441q-149 202 -421 202t-419 -202q-130 -177 -130 -440t130 -442q149 -202 421 -202t419 202q130 177 130 441z" />
    <glyph glyph-name="afii10033" unicode="&#x41f;" horiz-adv-x="1421" 
d="M147 1462h1127v-1462h-139v1343h-848v-1343h-140v1462z" />
    <glyph glyph-name="afii10034" unicode="&#x420;" horiz-adv-x="1290" 
d="M147 1462h650q200 0 317 -111t117 -307t-118 -308t-316 -109h-510v-627h-140v1462zM766 745q146 -1 236 73t90 226t-90 226t-236 73h-479v-598h479z" />
    <glyph glyph-name="afii10035" unicode="&#x421;" horiz-adv-x="1441" 
d="M78 730q0 321 179 541t511 222q219 0 389 -126t199 -347h-139q-36 168 -162 262t-279 93q-282 -2 -429 -203q-130 -177 -130 -440t130 -442q149 -202 421 -202q196 0 322 134t147 335h139q-14 -135 -63 -244q-155 -342 -567 -342q-150 1 -280 63t-216 166
q-172 209 -172 530z" />
    <glyph glyph-name="afii10036" unicode="&#x422;" horiz-adv-x="1138" 
d="M500 1343h-508v119h1157v-119h-510v-1343h-139v1343z" />
    <glyph glyph-name="afii10037" unicode="&#x423;" horiz-adv-x="1204" 
d="M262 -16q-74 0 -131 20v123q63 -23 145 -24t134.5 49t101.5 153l18 39l-542 1118h149l475 -970l463 970h148l-576 -1192q-119 -248 -265 -277q-46 -9 -120 -9z" />
    <glyph glyph-name="afii10038" unicode="&#x424;" horiz-adv-x="1638" 
d="M750 1505h139v-155q321 -8 505 -171t183.5 -438t-184.5 -439t-504 -167v-184h-139v184q-319 4 -503 167t-185 437.5t183 438.5t505 172v155zM750 1235q-276 -11 -414 -137t-138 -354t139.5 -354t412.5 -142v987zM1440 744q0 228 -137 354t-414 137v-987q271 16 411 142
t140 354z" />
    <glyph glyph-name="afii10039" unicode="&#x425;" horiz-adv-x="1175" 
d="M502 754l-496 708h164l414 -612l428 612h155l-499 -712l528 -750h-168l-444 645l-451 -645h-156z" />
    <glyph glyph-name="afii10040" unicode="&#x426;" horiz-adv-x="1464" 
d="M1309 0h-1162v1462h140v-1343h848v1343h139v-1343h174v-508h-139v389z" />
    <glyph glyph-name="afii10041" unicode="&#x427;" horiz-adv-x="1290" 
d="M574 725q144 0 430 59v678h139v-1462h-139v666q-100 -26 -250 -44t-199 -18q-282 0 -393 136q-78 96 -78 284v438h139v-430q-1 -129 41 -186t104 -89t206 -32z" />
    <glyph glyph-name="afii10042" unicode="&#x428;" horiz-adv-x="2097" 
d="M147 1462h140v-1343h692v1343h139v-1343h692v1343h140v-1462h-1803v1462z" />
    <glyph glyph-name="afii10043" unicode="&#x429;" horiz-adv-x="2140" 
d="M1985 0h-1838v1462h140v-1343h692v1343h139v-1343h692v1343h140v-1343h174v-508h-139v389z" />
    <glyph glyph-name="afii10044" unicode="&#x42a;" horiz-adv-x="1574" 
d="M432 1343h-442v119h581v-618h510q205 0 320 -113t115 -309t-115 -309t-320 -113h-649v1343zM1051 119q153 0 239 81t86 222t-86 222t-239 81h-480v-606h480z" />
    <glyph glyph-name="afii10045" unicode="&#x42b;" horiz-adv-x="1732" 
d="M147 1462h140v-618h510q205 0 319 -113t114 -309t-114 -309q-115 -113 -319 -113h-650v1462zM766 119q154 0 240 81t86 222t-86 222t-240 81h-479v-606h479zM1446 1462h139v-1462h-139v1462z" />
    <glyph glyph-name="afii10046" unicode="&#x42c;" horiz-adv-x="1290" 
d="M147 1462h140v-618h510q205 0 319 -113t114 -309t-114 -309q-115 -113 -319 -113h-650v1462zM766 119q154 0 240 81t86 222t-86 222t-240 81h-479v-606h479z" />
    <glyph glyph-name="afii10047" unicode="&#x42d;" horiz-adv-x="1423" 
d="M684 88q110 0 208 43q199 88 279 313q41 113 46 252h-744v117h739q-20 250 -165 408q-145 153 -369 153q-180 0 -303 -94t-158 -260h-139q23 214 198 344t398 129q318 0 506 -229q174 -210 174 -544t-188 -542q-90 -100 -213 -154t-263 -53q-266 0 -427 145t-197 392h137
q52 -299 290 -389q81 -31 191 -31z" />
    <glyph glyph-name="afii10048" unicode="&#x42e;" horiz-adv-x="2007" 
d="M287 705v-705h-140v1462h140v-639h317q26 288 200 479q175 191 479 191t484 -230q170 -212 170 -532t-179 -540t-487 -220q-163 -1 -286 59q-246 119 -337 395q-44 132 -48 280h-313zM1798 730q0 262 -128 442q-144 202 -402 202t-401 -202q-128 -180 -128 -440t136 -452
t394 -192t401 202q128 178 128 440z" />
    <glyph glyph-name="afii10049" unicode="&#x42f;" horiz-adv-x="1290" 
d="M1143 1462v-1462h-139v627h-328l-488 -627h-180l500 635q-184 8 -302 115q-118 108 -118 298t122 303t320 111h613zM1004 745v598h-443q-154 -1 -244 -81t-90 -222t90 -218t244 -77h443z" />
    <glyph glyph-name="afii10065" unicode="&#x430;" 
d="M928 748v-562q0 -78 76 -77q25 0 40 8v-109q-46 -8 -89 -8q-122 0 -141 110q-5 34 -5 74h-4q-78 -114 -160 -164t-225 -49q-245 0 -327 169q-27 58 -27 154t49 158t130 95t182 46t200 24t124 29q47 34 47 108q2 185 -168 216q-50 9 -108 9q-122 0 -200 -58t-82 -188h-129
q12 187 128 271t300 83q389 0 389 -339zM444 78q60 0 128 22t117 66q110 95 110 244v168h-4q-15 -30 -103 -46t-175 -27q-322 -41 -322 -205q0 -106 69 -164t180 -58z" />
    <glyph glyph-name="afii10066" unicode="&#x431;" horiz-adv-x="1138" 
d="M90 588q0 422 131 629q72 111 172 157t252 58l98 6q82 4 111 16t41 39h143q-16 -94 -83 -128t-201 -42l-156 -10q-180 -12 -274 -129t-129 -363h6q53 106 157 171t222 65q224 0 356 -146t132 -393t-134 -397t-371 -150q-129 -1 -223 53q-250 142 -250 564zM940 517
q0 193 -103 314t-261 120t-257.5 -119t-99.5 -313t101 -318t260 -123q78 0 144 32q136 65 189 229q27 81 27 178z" />
    <glyph glyph-name="afii10067" unicode="&#x432;" horiz-adv-x="1058" 
d="M983 295q0 -143 -96 -219t-283 -76h-483v1057h483q162 1 250 -63t88 -172q0 -208 -182 -261v-4q223 -39 223 -262zM590 500h-340v-391h340q266 0 264 200q0 191 -264 191zM590 600q111 0 167 47t56 127q0 174 -223 174h-340v-348h340z" />
    <glyph glyph-name="afii10068" unicode="&#x433;" horiz-adv-x="819" 
d="M133 1057h698v-109h-569v-948h-129v1057z" />
    <glyph glyph-name="afii10069" unicode="&#x434;" horiz-adv-x="1167" 
d="M283 918v139h710v-948h158v-445h-129v336h-881v-336h-129v445h125q146 271 146 809zM408 874q0 -496 -138 -765h594v839h-456v-74z" />
    <glyph glyph-name="afii10070" unicode="&#x435;" 
d="M546 1087q238 0 364 -185q111 -164 102 -408h-813q0 -263 190 -377q66 -39 158 -39q141 0 221 74t111 196h129q-40 -180 -150 -278t-311 -99q-241 0 -360 160.5t-118 392.5t113 388q126 175 364 175zM546.5 978q-148.5 0 -240.5 -110t-107 -266h684q-4 152 -96 264
t-240.5 112z" />
    <glyph glyph-name="afii10072" unicode="&#x436;" horiz-adv-x="1509" 
d="M690 1057h129v-539l486 539h174l-412 -443l457 -614h-158l-389 528l-158 -163v-365h-129v365l-158 163l-389 -528h-157l456 614l-411 443h174l485 -541v541z" />
    <glyph glyph-name="afii10073" unicode="&#x437;" horiz-adv-x="993" 
d="M501 80q157 0 219 68t62 155.5t-52 142.5t-173 56h-176v98h145q92 0 158 49t66 144q0 181 -261 184q-145 0 -209 -65t-75 -162h-127q15 177 137 264q100 71 277 71q273 0 360 -152q31 -55 31 -117q0 -151 -107 -222q-31 -20 -63 -27v-4q137 -22 186 -142q19 -45 19 -119
t-35 -138q-70 -129 -229 -171q-76 -22 -160 -22q-211 -1 -319 97t-118 264h129q26 -188 178 -235q54 -17 137 -17z" />
    <glyph glyph-name="afii10074" unicode="&#x438;" horiz-adv-x="1114" 
d="M121 1057h129v-905l584 905h159v-1057h-129v905l-583 -905h-160v1057z" />
    <glyph glyph-name="afii10075" unicode="&#x439;" horiz-adv-x="1114" 
d="M121 0v1057h129v-905l584 905h159v-1057h-129v905l-583 -905h-160zM553 1311q90 0 146.5 44t72.5 124h80q-48 -267 -300.5 -267t-287.5 267h80q10 -78 64.5 -123t144.5 -45z" />
    <glyph glyph-name="afii10076" unicode="&#x43a;" horiz-adv-x="1019" 
d="M123 1057h129v-543l586 543h172l-449 -414l475 -643h-162l-407 555l-215 -199v-356h-129v1057z" />
    <glyph glyph-name="afii10077" unicode="&#x43b;" horiz-adv-x="1157" 
d="M1036 1057v-1057h-129v948h-452q0 -612 -109 -823q-61 -113 -150 -128q-42 -7 -87 -7t-101 16v113q31 -11 78 -13t72 4q96 25 133 271t39 676h706z" />
    <glyph glyph-name="afii10078" unicode="&#x43c;" horiz-adv-x="1368" 
d="M121 1057h172l393 -912l389 912h172v-1057h-129v870h-6l-371 -870h-114l-371 870h-6v-870h-129v1057z" />
    <glyph glyph-name="afii10079" unicode="&#x43d;" horiz-adv-x="1099" 
d="M121 1057h129v-449h600v449h129v-1057h-129v500h-600v-500h-129v1057z" />
    <glyph glyph-name="afii10080" unicode="&#x43e;" horiz-adv-x="1138" 
d="M569 1087q230 0 371 -165q129 -156 129 -394t-132 -398t-368 -159q-121 0 -214 44q-182 86 -252 297t-1 427t253 303q93 45 214 45zM940 528q0 177 -98 314t-272 137t-273.5 -135.5t-98.5 -315.5t99 -315t272 -135q92 0 162 39q137 76 185 247q24 80 24 164z" />
    <glyph glyph-name="afii10081" unicode="&#x43f;" horiz-adv-x="1085" 
d="M121 1057h844v-1057h-129v948h-586v-948h-129v1057z" />
    <glyph glyph-name="afii10082" unicode="&#x440;" horiz-adv-x="1175" 
d="M123 1057h119v-201h4q46 111 146 171t226 60q234 1 357 -159t123 -400t-122 -398t-353 -159q-192 0 -309 129q-38 43 -58 101h-4v-590h-129v1446zM608 979q-185 0 -278 -135q-78 -111 -78 -308t83 -315q100 -143 279 -143t274 143q79 118 80 305t-87 320t-273 133z" />
    <glyph glyph-name="afii10083" unicode="&#x441;" 
d="M569 1087q170 0 288 -90t140 -272h-129q-58 254 -299 254q-174 0 -273 -135.5t-98 -315.5t99 -315t272 -135q120 0 208 86t100 215h129q-27 -193 -142 -301t-295 -107q-234 0 -368 161q-133 161 -132 398t134 397t366 160z" />
    <glyph glyph-name="afii10084" unicode="&#x442;" horiz-adv-x="907" 
d="M389 948h-391v109h911v-109h-391v-948h-129v948z" />
    <glyph glyph-name="afii10085" unicode="&#x443;" horiz-adv-x="948" 
d="M206 -281q94 0 144 99q14 31 31 67l45 119l-422 1053h137l348 -901l326 901h129l-459 -1217q-59 -138 -98 -172t-79 -45.5t-112 -9.5t-87 8v109q63 -11 97 -11z" />
    <glyph glyph-name="afii10086" unicode="&#x444;" horiz-adv-x="1638" 
d="M1153 -29q-86 0 -158 40t-106 102q-2 -2 -4 0v-502h-129v502h-4q-35 -61 -107 -101t-157 -41q-174 0 -292 150t-118 417t110 408t294 141t270 -143h4v518h129v-518h4q87 145 271 144t294 -142t110 -408t-118.5 -417t-292.5 -150zM535 80q85 0 153 62t68 167v445
q0 95 -66 160t-150 65q-157 0 -246 -114t-87 -341q0 -444 328 -444zM1105 80q329 0 329 444q0 229 -88 342t-228 113q-104 1 -168 -65t-65 -160v-445q0 -104 67 -167q68 -62 153 -62z" />
    <glyph glyph-name="afii10087" unicode="&#x445;" horiz-adv-x="985" 
d="M412 549l-379 508h162l301 -402l295 402h161l-381 -506l412 -551h-164l-332 444l-325 -444h-160z" />
    <glyph glyph-name="afii10088" unicode="&#x446;" horiz-adv-x="1130" 
d="M985 0h-864v1057h129v-948h579v948h129v-948h156v-445h-129v336z" />
    <glyph glyph-name="afii10089" unicode="&#x447;" horiz-adv-x="1019" 
d="M432 397q-172 0 -259 78t-87 262v320h129v-334q0 -186 152 -205q41 -4 102 -4t153 20t148 44v479h129v-1057h-129v461q-166 -64 -338 -64z" />
    <glyph glyph-name="afii10090" unicode="&#x448;" horiz-adv-x="1603" 
d="M121 1057h129v-948h487v948h129v-948h488v948h129v-1057h-1362v1057z" />
    <glyph glyph-name="afii10091" unicode="&#x449;" horiz-adv-x="1654" 
d="M1509 0h-1388v1057h129v-948h487v948h129v-948h488v948h129v-948h155v-445h-129v336z" />
    <glyph glyph-name="afii10092" unicode="&#x44a;" horiz-adv-x="1239" 
d="M346 948h-326v109h455v-424h379q154 0 244 -82.5t90 -232.5t-90 -234t-244 -84h-508v948zM475 524v-415h348q111 0 173 53t63 157q-2 205 -236 205h-348z" />
    <glyph glyph-name="afii10093" unicode="&#x44b;" horiz-adv-x="1374" 
d="M121 1057h129v-424h342q154 0 244 -82.5t90 -232.5t-90 -234t-244 -84h-471v1057zM250 524v-415h311q111 0 173 53t63 157q-2 205 -236 205h-311zM1124 1057h129v-1057h-129v1057z" />
    <glyph glyph-name="afii10094" unicode="&#x44c;" horiz-adv-x="1024" 
d="M131 1057h129v-424h379q154 0 244 -82.5t90 -232.5t-90 -234t-244 -84h-508v1057zM608 524h-348v-415h348q111 0 173 53t63 157q0 205 -236 205z" />
    <glyph glyph-name="afii10095" unicode="&#x44d;" 
d="M371 485v109h483q-16 180 -110 284t-248 103q-117 0 -194 -60t-105 -173h-134q29 160 142 250t293 89q221 0 356 -154t135 -407t-132 -404t-355 -151q-184 -1 -298 97t-147 274h129q29 -129 114 -197t208 -67q154 0 245 108t101 299h-483z" />
    <glyph glyph-name="afii10096" unicode="&#x44e;" horiz-adv-x="1525" 
d="M250 496v-496h-129v1057h129v-453h239q21 206 150 346q130 139 340 138t344 -163q133 -163 133 -397t-132 -396t-351 -161q-111 0 -199 41q-172 80 -249 279q-36 96 -40 205h-235zM970 979q-162 0 -259 -134.5t-97 -314.5t98 -316t259 -136q85 0 151 39q133 78 181 243
q49 165 0 334t-182 246q-67 39 -151 39z" />
    <glyph glyph-name="afii10097" unicode="&#x44f;" horiz-adv-x="1036" 
d="M403 1057h512v-1057h-129v420h-249l-363 -420h-168l385 428q-141 10 -224 93t-83 221t86 227q88 88 233 88zM786 528v420h-352q-106 0 -164 -58t-58 -150t58 -152q57 -60 164 -60h352z" />
    <glyph glyph-name="uni0450" unicode="&#x450;" 
d="M546 1087q238 0 364 -185q111 -164 102 -408h-813q0 -263 190 -377q66 -39 158 -39q141 0 221 74t111 196h129q-40 -180 -150 -278t-311 -99q-241 0 -360 160.5t-118 392.5t113 388q126 175 364 175zM546.5 978q-148.5 0 -240.5 -110t-107 -266h684q-4 152 -96 264
t-240.5 112zM461 1493l215 -289h-105l-268 289h158z" />
    <glyph glyph-name="afii10071" unicode="&#x451;" 
d="M546 1087q238 0 364 -185q111 -164 102 -408h-813q0 -263 190 -377q66 -39 158 -39q141 0 221 74t111 196h129q-40 -180 -150 -278t-311 -99q-241 0 -360 160.5t-118 392.5t113 388q126 175 364 175zM546.5 978q-148.5 0 -240.5 -110t-107 -266h684q-4 152 -96 264
t-240.5 112zM281 1446h137v-207h-137v207zM641 1446h139v-207h-139v207z" />
    <glyph glyph-name="afii10099" unicode="&#x452;" horiz-adv-x="1120" 
d="M631 1057q369 0 368 -408v-573q1 -211 -109 -338t-335 -127q-43 0 -88 6v121q43 -6 84 -6q174 0 247 94t72 268v535q0 319 -264 319q-148 0 -242 -100t-94 -262v-586h-129v1190h-168v108h168v164h129v-164h478v-108h-478v-346h4q94 213 357 213z" />
    <glyph glyph-name="afii10100" unicode="&#x453;" horiz-adv-x="819" 
d="M133 1057h698v-109h-569v-948h-129v1057zM344 1204l215 289h160l-270 -289h-105z" />
    <glyph glyph-name="afii10101" unicode="&#x454;" 
d="M702 594v-109h-493q10 -190 101 -299t245 -108q123 0 205 68t110 196h129q-35 -166 -145 -268t-293 -103q-223 0 -355 151t-132 401t134 408q135 156 357 154q180 0 290 -89t138 -248h-133q-59 231 -293 231q-154 0 -248 -102t-110 -283h493z" />
    <glyph glyph-name="afii10102" unicode="&#x455;" horiz-adv-x="985" 
d="M498 -29q-186 0 -302 88t-133 283h130q8 -131 95 -198t216 -66q180 0 261 107q28 37 28 89q0 126 -147 172q-42 14 -85 25l-166 37q-143 36 -197 80t-75 89q-23 46 -23 120t36 131t93 92q109 67 269 67q260 0 352 -190q31 -63 35 -149h-129q-4 112 -80 172
q-77 59 -187 59t-163 -31q-97 -58 -97 -147q0 -126 220 -183l172 -38q198 -29 274 -172q27 -52 27 -130t-39 -138q-77 -119 -236 -152q-75 -17 -149 -17z" />
    <glyph glyph-name="afii10103" unicode="&#x456;" horiz-adv-x="378" 
d="M125 1057h129v-1057h-129v1057zM125 1462h129v-207h-129v207z" />
    <glyph glyph-name="afii10104" unicode="&#x457;" horiz-adv-x="378" 
d="M-59 1446h137v-207h-137v207zM301 1446h139v-207h-139v207zM125 1057h129v-1057h-129v1057z" />
    <glyph glyph-name="afii10105" unicode="&#x458;" horiz-adv-x="378" 
d="M18 -281q66 0 86 44t21 110v1184h129v-1153q0 -59 -9 -113q-19 -111 -105 -157q-44 -24 -100 -24t-99 5v106q11 -2 77 -2zM125 1462h129v-207h-129v207z" />
    <glyph glyph-name="afii10106" unicode="&#x459;" horiz-adv-x="1800" 
d="M1036 1057v-424h379q154 0 244 -82.5t90 -232.5t-90 -234t-244 -84h-508v948h-452q0 -612 -109 -823q-61 -113 -150 -128q-42 -7 -87 -7t-101 16v113q31 -11 78 -13t72 4q96 25 133 271t39 676h706zM1620 319q0 205 -236 205h-348v-415h348q111 0 174 53q62 53 62 157z
" />
    <glyph glyph-name="afii10107" unicode="&#x45a;" horiz-adv-x="1742" 
d="M121 1057h129v-430h600v430h129v-430h379q154 0 244 -81.5t90 -231.5t-90 -232t-244 -82h-508v518h-600v-518h-129v1057zM979 518v-409h348q234 0 236 204q-2 205 -236 205h-348z" />
    <glyph glyph-name="afii10108" unicode="&#x45b;" horiz-adv-x="1120" 
d="M631 1057q369 0 368 -408v-649h-129v629q0 319 -264 319q-148 0 -242 -100t-94 -262v-586h-129v1190h-168v108h168v164h129v-164h478v-108h-478v-346h4q94 213 357 213z" />
    <glyph glyph-name="afii10109" unicode="&#x45c;" horiz-adv-x="1024" 
d="M123 1057h129v-543l586 543h172l-449 -414l475 -643h-162l-407 555l-215 -199v-356h-129v1057zM426 1204l215 289h160l-271 -289h-104z" />
    <glyph glyph-name="uni045D" unicode="&#x45d;" horiz-adv-x="1114" 
d="M121 1057h129v-905l584 905h159v-1057h-129v905l-583 -905h-160v1057zM487 1493l215 -289h-104l-268 289h157z" />
    <glyph glyph-name="afii10110" unicode="&#x45e;" horiz-adv-x="948" 
d="M222 -281q50 0 84.5 36.5t74.5 129.5l45 119l-422 1053h137l348 -901l326 901h129l-459 -1217q-60 -140 -98.5 -173.5t-78.5 -44.5t-112 -9t-87 8v109q63 -11 113 -11zM485 1311q90 0 146.5 44t73.5 124h79q-48 -267 -301 -267t-286 267h79q10 -78 64.5 -123t144.5 -45z
" />
    <glyph glyph-name="afii10193" unicode="&#x45f;" horiz-adv-x="1079" 
d="M475 0h-354v1057h129v-948h579v948h129v-1057h-354v-336h-129v336z" />
    <glyph glyph-name="afii10146" unicode="&#x462;" horiz-adv-x="1507" 
d="M365 1130h-365v119h365v213h139v-213h510v-119h-510v-286h510q206 0 320 -113t114 -309t-115 -309t-319 -113h-649v1130zM983 119q154 0 240 81t86 222t-86 222t-240 81h-479v-606h479z" />
    <glyph glyph-name="afii10194" unicode="&#x463;" horiz-adv-x="1155" 
d="M262 948h-262v109h262v405h129v-405h393v-109h-393v-315h379q154 0 244 -82.5t90 -232.5t-90 -234t-244 -84h-508v948zM391 524v-415h348q111 0 173 53t63 157q-2 205 -236 205h-348z" />
    <glyph glyph-name="uni046A" unicode="&#x46a;" horiz-adv-x="1892" 
d="M123 410q0 74 13 148q28 160 198 234q90 38 244 37h227l-445 633h1162l-449 -633h242q276 0 381 -136q73 -93 73 -283v-410h-139v401q0 130 -41 187t-103 89t-173 32h-297v-709h-139v709h-297q-188 0 -269 -110q-49 -68 -49 -198v-401h-139v410zM1282 1343h-678l334 -493
z" />
    <glyph glyph-name="uni046B" unicode="&#x46b;" horiz-adv-x="1452" 
d="M102 258q0 184 87 260t247 76h174l-346 463h920l-348 -463h180q160 0 247 -76t87 -260v-258h-129v272q0 133 -77 184q-49 32 -155 29h-198v-485h-129v485h-199q-108 1 -149 -25q-83 -53 -83 -188v-272h-129v258zM942 948h-434l219 -293z" />
    <glyph glyph-name="afii10147" unicode="&#x472;" horiz-adv-x="1517" 
d="M70 730q0 321 179 541t510 221q330 1 517 -229q172 -210 172 -532t-172 -530q-190 -230 -518 -229t-508 219t-180 539zM492 756q-114 0 -224 -98q-29 -26 -51 -46q30 -224 166 -374t389 -150t402 195q131 169 135 432q-166 -133 -291 -133q-57 0 -129.5 28t-146.5 59
t-140 59t-110 28zM1038 702q58 0 132 44t130 100q-26 224 -165 376t-375 152q-268 0 -417 -196q-130 -170 -134 -433q159 128 293 132q51 0 127 -29t285 -118q66 -28 124 -28z" />
    <glyph glyph-name="afii10195" unicode="&#x473;" horiz-adv-x="1138" 
d="M569 1087q230 0 371 -165q129 -156 129 -394t-132 -398t-368 -159q-121 0 -214 44q-182 86 -252 297t-1 427t253 303q93 45 214 45zM754 432q-76 0 -206 59t-178 59q-80 1 -169 -85q17 -161 113 -274t260 -113t263 128t103 312q-110 -86 -186 -86zM749 532q80 0 183 93
q-26 152 -120 253t-248 101t-254 -118q-98 -118 -109 -281q84 75 178 73q61 -1 195 -61t175 -60z" />
    <glyph glyph-name="afii10148" unicode="&#x474;" horiz-adv-x="1325" 
d="M1304 1362q-44 0 -67 -2q-51 -4 -92 -55q-23 -27 -39 -76l-436 -1229h-162l-520 1462h147l455 -1308h4l389 1122q60 184 206 203q38 4 87 4t100 -17v-118q-28 14 -72 14z" />
    <glyph glyph-name="afii10196" unicode="&#x475;" horiz-adv-x="1050" 
d="M978 1075q44 0 93 -16v-113q-31 12 -109 14t-120 -118l-293 -842h-137l-408 1057h143l332 -928h4l250 772q48 151 167 169q34 5 78 5z" />
    <glyph glyph-name="Izhitsadblgravecyrillic" unicode="&#x476;" horiz-adv-x="1325" 
d="M705 1585h-105l-258 289h156zM1022 1585h-102l-258 289h155zM1304 1362q-44 0 -67 -2q-51 -4 -92 -55q-23 -27 -39 -76l-436 -1229h-162l-520 1462h147l455 -1308h4l389 1122q60 184 206 203q38 4 87 4t100 -17v-118q-28 14 -72 14z" />
    <glyph glyph-name="izhitsadblgravecyrillic" unicode="&#x477;" horiz-adv-x="1050" 
d="M559 1184h-104l-258 289h155zM877 1184h-103l-258 289h156zM978 1075q44 0 93 -16v-113q-31 12 -109 14t-120 -118l-293 -842h-137l-408 1057h143l332 -928h4l250 772q48 151 167 169q34 5 78 5z" />
    <glyph glyph-name="uni048C" unicode="&#x48c;" horiz-adv-x="1466" 
d="M324 1343h-324v119h324v213h139v-213h346v-119h-346v-499h510q205 0 319 -113t114 -309t-114 -309q-115 -113 -319 -113h-649v1343zM942 119q154 0 240 81t86 222t-86 222t-240 81h-479v-606h479z" />
    <glyph glyph-name="uni048D" unicode="&#x48d;" horiz-adv-x="1114" 
d="M221 948h-221v109h221v246h129v-246h242v-109h-242v-315h379q154 0 244 -82.5t90 -232.5t-90 -234t-244 -84h-508v948zM698 524h-348v-415h348q111 0 173 53t63 157q0 205 -236 205z" />
    <glyph glyph-name="afii10050" unicode="&#x490;" horiz-adv-x="1052" 
d="M160 1462h764v330h139v-449h-764v-1343h-139v1462z" />
    <glyph glyph-name="afii10098" unicode="&#x491;" horiz-adv-x="819" 
d="M133 1057h555v317h129v-426h-555v-948h-129v1057z" />
    <glyph glyph-name="uni0492" unicode="&#x492;" horiz-adv-x="1183" 
d="M291 696h-250v119h250v647h903v-119h-764v-528h420v-119h-420v-696h-139v696z" />
    <glyph glyph-name="uni0493" unicode="&#x493;" horiz-adv-x="927" 
d="M242 477h-201v109h201v471h698v-109h-569v-362h352v-109h-352v-477h-129v477z" />
    <glyph glyph-name="uni0496" unicode="&#x496;" horiz-adv-x="2068" 
d="M944 1462h139v-770l721 770h189l-607 -631l564 -712h174v-508h-139v389h-121l-576 729l-205 -213v-516h-139v516l-205 213l-575 -729h-180l657 831l-606 631h188l721 -770v770z" />
    <glyph glyph-name="uni0497" unicode="&#x497;" horiz-adv-x="1550" 
d="M690 1057h129v-539l486 539h174l-412 -443l377 -505h155v-445h-129v336h-104l-389 528l-158 -163v-365h-129v365l-158 163l-389 -528h-157l456 614l-411 443h174l485 -541v541z" />
    <glyph glyph-name="uni0498" unicode="&#x498;" horiz-adv-x="1284" 
d="M1204 486.5q0 -224.5 -126 -364.5t-373 -151l-66 -88q154 25 214 -51q24 -29 24 -76q-1 -88 -69 -132t-137 -44q-130 0 -210 43l26 66q79 -29 142 -29q129 0 129 88q0 76 -105 78q-51 0 -88 -16l-33 30l101 129q-399 13 -515 290q-40 93 -40 210v12h133q0 -203 125 -301
t320 -98t302 101t107 234t-94 211t-238 81h-233v118h233q121 0 207 67q86 66 86 198t-96 208t-258 76q-277 0 -374 -187q-32 -62 -38 -145h-135q12 220 159 334q146 114 372 115q226 0 367 -100t142 -297q0 -165 -137 -267q-39 -29 -78 -43v-6q254 -69 254 -293.5z" />
    <glyph glyph-name="uni0499" unicode="&#x499;" horiz-adv-x="993" 
d="M449 -340q129 0 129 88q0 76 -106 78q-52 0 -87 -16l-33 30l103 133q-182 8 -281 95q-106 98 -117 264h129q26 -188 178 -235q54 -17 137 -17q157 0 219 68t62 155.5t-52 142.5t-173 56h-176v98h145q92 0 158 49t66 144q0 181 -261 184q-145 0 -209 -65t-75 -162h-127
q15 177 137 264q100 71 277 71q273 0 360 -152q31 -55 31 -117q0 -151 -107 -222q-31 -20 -63 -27v-4q137 -22 186 -142q19 -45 19 -119t-35 -138q-71 -130 -230 -170q-61 -18 -127 -21l-67 -90q151 25 214 -51q23 -29 23 -76q0 -88 -68 -132t-137 -44q-130 0 -210 43l26 66
q79 -29 142 -29z" />
    <glyph glyph-name="uni049A" unicode="&#x49a;" horiz-adv-x="1368" 
d="M1296 0h-120l-609 762l-280 -260v-502h-140v1462h140v-786l850 786h188l-653 -604l590 -739h174v-508h-140v389z" />
    <glyph glyph-name="uni049B" unicode="&#x49b;" horiz-adv-x="1060" 
d="M983 0h-109l-407 555l-215 -199v-356h-129v1057h129v-543l586 543h172l-449 -414l395 -534h156v-445h-129v336z" />
    <glyph glyph-name="uni049C" unicode="&#x49c;" horiz-adv-x="1327" 
d="M147 1462h140v-635h149v322h92v-322h47l572 635h178l-627 -680l658 -782h-180l-601 709h-47v-349h-92v349h-149v-709h-140v1462z" />
    <glyph glyph-name="uni049D" unicode="&#x49d;" horiz-adv-x="1019" 
d="M123 1057h129v-449h84v242h92v-242h41l381 449h160l-432 -488l458 -569h-162l-405 500h-41v-254h-92v254h-84v-500h-129v1057z" />
    <glyph glyph-name="uni04A0" unicode="&#x4a0;" horiz-adv-x="1611" 
d="M432 1343h-442v119h581v-786l850 786h189l-654 -604l684 -858h-180l-608 762l-281 -260v-502h-139v1343z" />
    <glyph glyph-name="uni04A1" unicode="&#x4a1;" horiz-adv-x="1243" 
d="M346 948h-326v109h455v-543l586 543h172l-449 -414l476 -643h-162l-408 555l-215 -199v-356h-129v948z" />
    <glyph glyph-name="uni04A2" unicode="&#x4a2;" horiz-adv-x="1484" 
d="M1329 0h-174v709h-868v-709h-140v1462h140v-635h868v635h139v-1343h174v-508h-139v389z" />
    <glyph glyph-name="uni04A3" unicode="&#x4a3;" horiz-adv-x="1150" 
d="M1006 0h-156v500h-600v-500h-129v1057h129v-449h600v449h129v-948h156v-445h-129v336z" />
    <glyph glyph-name="uni04A4" unicode="&#x4a4;" horiz-adv-x="2048" 
d="M147 1462h140v-635h868v635h903v-119h-764v-1343h-139v709h-868v-709h-140v1462z" />
    <glyph glyph-name="uni04A5" unicode="&#x4a5;" horiz-adv-x="1536" 
d="M121 1057h129v-449h600v449h698v-109h-569v-948h-129v500h-600v-500h-129v1057z" />
    <glyph glyph-name="uni04AA" unicode="&#x4aa;" horiz-adv-x="1441" 
d="M732 -340q128 0 128 88q0 76 -104 78q-52 0 -88 -16l-33 30l102 131q-308 12 -484 225q-175 213 -175 534t179 541t511 222q219 0 389 -126t199 -347h-139q-36 168 -162 262t-279 93q-282 -2 -429 -203q-130 -177 -130 -440t130 -442q149 -202 421 -202q196 0 322 134
t147 335h139q-28 -271 -182 -421t-385 -163l-68 -90q154 25 214 -51q24 -29 24 -76q-1 -88 -69 -132t-136 -44q-130 0 -211 43l27 66q79 -29 142 -29z" />
    <glyph glyph-name="uni04AB" unicode="&#x4ab;" 
d="M754 -244q0 -88 -68 -132t-138 -44q-130 0 -210 43l27 66q78 -29 141 -29q129 0 129 88q0 76 -105 78q-51 0 -88 -16l-32 30l104 133q-195 18 -321 169q-125 151 -124 388t134 397t366 160q170 0 288 -90t140 -272h-129q-58 254 -299 254q-174 0 -273 -135.5t-98 -315.5
t99 -315t272 -135q120 0 208 86t100 215h129q-27 -193 -140 -298t-282 -110l-68 -88q154 25 214 -51q24 -29 24 -76z" />
    <glyph glyph-name="uni04AE" unicode="&#x4ae;" horiz-adv-x="1251" 
d="M694 0h-139v602l-573 860h163l482 -741l479 741h166l-578 -860v-602z" />
    <glyph glyph-name="uni04AF" unicode="&#x4af;" horiz-adv-x="948" 
d="M551 -389h-129v403l-418 1043h137l348 -901l326 901h129l-393 -1047v-399z" />
    <glyph glyph-name="uni04B0" unicode="&#x4b0;" horiz-adv-x="1251" 
d="M555 346h-332v119h332v137l-573 860h163l482 -741l479 741h166l-578 -860v-137h338v-119h-338v-346h-139v346z" />
    <glyph glyph-name="uni04B1" unicode="&#x4b1;" horiz-adv-x="948" 
d="M422 -186h-262v108h262v92l-418 1043h137l348 -901l326 901h129l-393 -1047v-88h262v-108h-262v-203h-129v203z" />
    <glyph glyph-name="uni04B2" unicode="&#x4b2;" horiz-adv-x="1216" 
d="M1147 0h-119l-444 645l-451 -645h-156l525 754l-496 708h164l414 -612l428 612h155l-499 -712l444 -631h174v-508h-139v389z" />
    <glyph glyph-name="uni04B3" unicode="&#x4b3;" horiz-adv-x="1026" 
d="M928 0h-109l-332 444l-325 -444h-160l410 549l-379 508h162l301 -402l295 402h161l-381 -506l330 -442h156v-445h-129v336z" />
    <glyph glyph-name="uni04B6" unicode="&#x4b6;" horiz-adv-x="1333" 
d="M574 725q144 0 430 59v678h139v-1343h174v-508h-139v389h-174v666q-100 -26 -250 -44t-199 -18q-282 0 -393 136q-78 96 -78 284v438h139v-430q-1 -129 41 -186t104 -89t206 -32z" />
    <glyph glyph-name="uni04B7" unicode="&#x4b7;" horiz-adv-x="1071" 
d="M432 397q-172 0 -259 78t-87 262v320h129v-334q0 -186 152 -205q41 -4 102 -4t153 20t148 44v479h129v-948h156v-445h-129v336h-156v461q-166 -64 -338 -64z" />
    <glyph glyph-name="uni04B8" unicode="&#x4b8;" horiz-adv-x="1290" 
d="M651 279h-92v325h-4q-282 0 -393 136q-78 96 -78 284v438h139v-430q-1 -129 41 -186t104 -89t173 -32h18v322h92v-318q197 14 353 55v678h139v-1462h-139v666q-162 -39 -353 -58v-329z" />
    <glyph glyph-name="uni04B9" unicode="&#x4b9;" horiz-adv-x="1019" 
d="M528 154h-92v243h-16q-160 0 -247 78t-87 262v320h129v-334q0 -181 143 -204q39 -5 78 -5v244h92v-240q138 16 242 60v479h129v-1057h-129v461q-121 -43 -242 -58v-249z" />
    <glyph glyph-name="uni04BA" unicode="&#x4ba;" horiz-adv-x="1290" 
d="M1067 471q0 127 -41 185t-103 90t-216 32t-420 -59v-719h-140v1462h140v-624q117 30 259 46t189 15q282 0 393 -136q78 -96 78 -284v-479h-139v471z" />
    <glyph glyph-name="uni04BB" unicode="&#x4bb;" horiz-adv-x="1099" 
d="M121 1462h129v-588h4q37 98 131 156t206 57q311 0 370 -237q18 -76 18 -170v-680h-129v659q0 320 -268 320q-150 0 -240 -102t-92 -261v-616h-129v1462z" />
    <glyph glyph-name="uni04C0" unicode="&#x4c0;" horiz-adv-x="454" 
d="M158 1462h139v-1462h-139v1462z" />
    <glyph glyph-name="uni04C1" unicode="&#x4c1;" horiz-adv-x="2027" 
d="M944 1462h139v-770l721 770h189l-607 -631l658 -831h-180l-576 729l-205 -213v-516h-139v516l-205 213l-575 -729h-180l657 831l-606 631h188l721 -770v770zM1008 1624q-124 0 -200 68t-87 192h80q2 -41 20 -73q53 -95 209 -95q58 0 121 44t76 124h80q-15 -124 -95 -192
t-204 -68z" />
    <glyph glyph-name="uni04C2" unicode="&#x4c2;" horiz-adv-x="1509" 
d="M690 1057h129v-539l486 539h174l-412 -443l457 -614h-158l-389 528l-158 -163v-365h-129v365l-158 163l-389 -528h-157l456 614l-411 443h174l485 -541v541zM770 1311q58 0 121 44t76 124h80q-15 -123 -95 -192t-204 -69t-200 68t-87 193h80q2 -41 20 -73q53 -95 209 -95
z" />
    <glyph glyph-name="uni04D0" unicode="&#x4d0;" horiz-adv-x="1290" 
d="M575 1462h156l574 -1462h-150l-178 455h-666l-176 -455h-147zM930 573l-283 750l-293 -750h576zM640 1624q-124 0 -201 68t-87 192h80q2 -41 21 -73q53 -95 207 -95q58 0 122 44q63 44 76 124h80q-16 -124 -95 -192t-203 -68z" />
    <glyph glyph-name="uni04D1" unicode="&#x4d1;" 
d="M928 748v-562q0 -78 76 -77q25 0 40 8v-109q-46 -8 -89 -8q-122 0 -141 110q-5 34 -5 74h-4q-78 -114 -160 -164t-225 -49q-245 0 -327 169q-27 58 -27 154t49 158t130 95t182 46t200 24t124 29q47 34 47 108q2 185 -168 216q-50 9 -108 9q-122 0 -200 -58t-82 -188h-129
q12 187 128 271t300 83q389 0 389 -339zM444 78q60 0 128 22t117 66q110 95 110 244v168h-4q-15 -30 -103 -46t-175 -27q-322 -41 -322 -205q0 -106 69 -164t180 -58zM546 1311q58 0 122 44q63 44 75 124h80q-16 -123 -95.5 -192t-203.5 -69t-200 68t-86 193h79
q2 -41 21 -73q53 -95 208 -95z" />
    <glyph glyph-name="uni04D2" unicode="&#x4d2;" horiz-adv-x="1290" 
d="M575 1462h156l574 -1462h-150l-178 455h-666l-176 -455h-147zM930 573l-283 750l-293 -750h576zM395 1821h137v-207h-137v207zM756 1821h139v-207h-139v207z" />
    <glyph glyph-name="uni04D3" unicode="&#x4d3;" 
d="M928 748v-562q0 -78 76 -77q25 0 40 8v-109q-46 -8 -89 -8q-122 0 -141 110q-5 34 -5 74h-4q-78 -114 -160 -164t-225 -49q-245 0 -327 169q-27 58 -27 154t49 158t130 95t182 46t200 24t124 29q47 34 47 108q2 185 -168 216q-50 9 -108 9q-122 0 -200 -58t-82 -188h-129
q12 187 128 271t300 83q389 0 389 -339zM444 78q60 0 128 22t117 66q110 95 110 244v168h-4q-15 -30 -103 -46t-175 -27q-322 -41 -322 -205q0 -106 69 -164t180 -58zM281 1446h137v-207h-137v207zM641 1446h139v-207h-139v207z" />
    <glyph glyph-name="uni04D4" unicode="&#x4d4;" horiz-adv-x="1857" 
d="M1802 1462v-119h-751v-528h704v-119h-704v-577h759v-119h-899v463h-530l-238 -463h-155l764 1462h1050zM911 582v761h-82l-387 -761h469z" />
    <glyph glyph-name="uni04D5" unicode="&#x4d5;" horiz-adv-x="1781" 
d="M420 -29q-245 0 -327 169q-27 58 -27 154t49 158t130 95t182 46t200 24t124 29q47 34 47 108q2 185 -168 216q-50 9 -108 9q-122 0 -200 -58t-82 -188h-129q12 187 128 271t316 84t290 -109q36 -43 46 -111h4q38 106 141 162t232 56.5t216 -48.5q242 -136 238 -544h-794
q-13 -180 78 -298t266 -118q254 0 313 264h129q-41 -180 -158 -275t-303 -96q-293 0 -387 265h-4q-22 -125 -154 -195t-288 -70zM444 78q60 0 128 22t117 66q110 95 110 244v168h-4q-15 -30 -103 -46t-175 -27q-322 -41 -322 -205q0 -106 69 -164t180 -58zM1593 602
q0 152 -93 264t-243.5 112.5t-242.5 -111.5t-86 -265h665z" />
    <glyph glyph-name="uni04D6" unicode="&#x4d6;" horiz-adv-x="1214" 
d="M147 1462h1010v-119h-870v-528h815v-119h-815v-577h880v-119h-1020v1462zM658 1624q-124 0 -200 68t-87 192h80q2 -41 20 -73q53 -95 208 -95q58 0 122 44q63 44 76 124h79q-16 -124 -95 -192t-203 -68z" />
    <glyph glyph-name="uni04D7" unicode="&#x4d7;" 
d="M546 1087q238 0 364 -185q111 -164 102 -408h-813q0 -263 190 -377q66 -39 158 -39q141 0 221 74t111 196h129q-40 -180 -150 -278t-311 -99q-241 0 -360 160.5t-118 392.5t113 388q126 175 364 175zM546.5 978q-148.5 0 -240.5 -110t-107 -266h684q-4 152 -96 264
t-240.5 112zM546 1311q58 0 122 44q63 44 75 124h80q-16 -123 -95.5 -192t-203.5 -69t-200 68t-86 193h79q2 -41 21 -73q53 -95 208 -95z" />
    <glyph glyph-name="uni04D8" unicode="&#x4d8;" horiz-adv-x="1458" 
d="M1389 734q0 -327 -166 -533q-184 -228 -512 -230q-290 0 -466 208q-175 208 -175 597h1177q-22 411 -284 547q-99 51 -251 51t-285 -103t-177 -251h-139q46 218 220 346t371 127q359 0 533 -230q154 -202 154 -529zM217 657q0 -225 140 -397q139 -172 371 -172t376 174
q123 149 141 395h-1028z" />
    <glyph glyph-name="afii10846" unicode="&#x4d9;" horiz-adv-x="1083" 
d="M885 567q0 264 -191 377q-66 39 -157 39q-141 0 -221 -74t-111 -196h-129q41 180 150 278q110 98 311 99q241 0 359 -159t118 -392t-120 -399t-358 -166.5t-366 185.5q-115 167 -104 408h819zM538 82q148 0 239 110q90 110 108 267h-684q5 -157 97 -267t240 -110z" />
    <glyph glyph-name="Schwadieresiscyrillic" unicode="&#x4da;" horiz-adv-x="1458" 
d="M479 1802h137v-207h-137v207zM840 1802h139v-207h-139v207zM1389 734q0 -327 -166 -533q-184 -228 -512 -230q-290 0 -466 208q-175 208 -175 597h1177q-22 411 -284 547q-99 51 -251 51t-285 -103t-177 -251h-139q46 218 220 346t371 127q359 0 533 -230
q154 -202 154 -529zM217 657q0 -225 140 -397q139 -172 371 -172t376 174q123 149 141 395h-1028z" />
    <glyph glyph-name="schwadieresiscyrillic" unicode="&#x4db;" horiz-adv-x="1083" 
d="M287 1407h137v-207h-137v207zM647 1407h139v-207h-139v207zM885 567q0 264 -191 377q-66 39 -157 39q-141 0 -221 -74t-111 -196h-129q41 180 150 278q110 98 311 99q241 0 359 -159t118 -392t-120 -399t-358 -166.5t-366 185.5q-115 167 -104 408h819zM538 82
q148 0 239 110q90 110 108 267h-684q5 -157 97 -267t240 -110z" />
    <glyph glyph-name="uni04DC" unicode="&#x4dc;" horiz-adv-x="2027" 
d="M944 1462h139v-770l721 770h189l-607 -631l658 -831h-180l-576 729l-205 -213v-516h-139v516l-205 213l-575 -729h-180l657 831l-606 631h188l721 -770v770zM764 1821h137v-207h-137v207zM1124 1821h140v-207h-140v207z" />
    <glyph glyph-name="uni04DD" unicode="&#x4dd;" horiz-adv-x="1509" 
d="M690 1057h129v-539l486 539h174l-412 -443l457 -614h-158l-389 528l-158 -163v-365h-129v365l-158 163l-389 -528h-157l456 614l-411 443h174l485 -541v541zM504 1446h137v-207h-137v207zM864 1446h140v-207h-140v207z" />
    <glyph glyph-name="uni04DE" unicode="&#x4de;" horiz-adv-x="1284" 
d="M674 -31q-427 0 -552 290q-40 93 -40 210v12h133q0 -203 125 -301t319 -98t302 100t108 234t-94 212t-238 81h-233v118h233q123 0 209 68q86 69 85 199t-97 206t-258 76q-277 0 -374 -187q-32 -62 -38 -145h-135q12 220 159 335q148 114 374 114t366 -100t141 -297
q0 -165 -137 -267q-39 -29 -78 -43v-6q117 -32 186 -118t68 -234q0 -68 -27 -147q-63 -180 -259 -266q-104 -46 -248 -46zM391 1821h137v-207h-137v207zM752 1821h139v-207h-139v207z" />
    <glyph glyph-name="uni04DF" unicode="&#x4df;" horiz-adv-x="993" 
d="M501 80q157 0 219 68t62 155.5t-52 142.5t-173 56h-176v98h145q92 0 158 49t66 144q0 181 -261 184q-145 0 -209 -65t-75 -162h-127q15 177 137 264q100 71 277 71q273 0 360 -152q31 -55 31 -117q0 -151 -107 -222q-31 -20 -63 -27v-4q137 -22 186 -142q19 -45 19 -119
t-35 -138q-70 -129 -229 -171q-76 -22 -160 -22q-211 -1 -319 97t-118 264h129q26 -188 178 -235q54 -17 137 -17zM246 1446h137v-207h-137v207zM606 1446h139v-207h-139v207z" />
    <glyph glyph-name="uni04E2" unicode="&#x4e2;" horiz-adv-x="1454" 
d="M147 1462h140v-1312l839 1312h181v-1462h-140v1313l-839 -1313h-181v1462zM391 1765h672v-92h-672v92z" />
    <glyph glyph-name="uni04E3" unicode="&#x4e3;" horiz-adv-x="1114" 
d="M121 1057h129v-905l584 905h159v-1057h-129v905l-583 -905h-160v1057zM221 1391h672v-93h-672v93z" />
    <glyph glyph-name="uni04E4" unicode="&#x4e4;" horiz-adv-x="1454" 
d="M147 1462h140v-1312l839 1312h181v-1462h-140v1313l-839 -1313h-181v1462zM477 1821h137v-207h-137v207zM838 1821h139v-207h-139v207z" />
    <glyph glyph-name="uni04E5" unicode="&#x4e5;" horiz-adv-x="1114" 
d="M121 1057h129v-905l584 905h159v-1057h-129v905l-583 -905h-160v1057zM307 1446h137v-207h-137v207zM668 1446h139v-207h-139v207z" />
    <glyph glyph-name="uni04E6" unicode="&#x4e6;" horiz-adv-x="1517" 
d="M70 730q0 321 179 541t510 221q330 1 517 -229q172 -210 172 -532t-172 -530q-190 -230 -518 -229t-508 219t-180 539zM1309 731q0 264 -130 441q-149 202 -421 202t-419 -202q-130 -177 -130 -440t130 -442q149 -202 421 -202t419 202q130 177 130 441zM508 1821h137
v-207h-137v207zM868 1821h140v-207h-140v207z" />
    <glyph glyph-name="uni04E7" unicode="&#x4e7;" horiz-adv-x="1138" 
d="M569 1087q230 0 371 -165q129 -156 129 -394t-132 -398t-368 -159q-121 0 -214 44q-182 86 -252 297t-1 427t253 303q93 45 214 45zM940 528q0 177 -98 314t-272 137t-273.5 -135.5t-98.5 -315.5t99 -315t272 -135q92 0 162 39q137 76 185 247q24 80 24 164zM319 1446
h138v-207h-138v207zM680 1446h139v-207h-139v207z" />
    <glyph glyph-name="uni04E8" unicode="&#x4e8;" horiz-adv-x="1517" 
d="M70 730q0 321 179 541t510 221q330 1 517 -229q172 -210 172 -532t-172 -530q-190 -230 -518 -229t-508 219t-180 539zM760 88q262 0 400 178q140 178 149 430h-1100q9 -256 139 -421q150 -187 412 -187zM758 1374q-248 0 -394 -172q-129 -151 -151 -387h1092
q-21 235 -160 397t-387 162z" />
    <glyph glyph-name="uni04E9" unicode="&#x4e9;" horiz-adv-x="1138" 
d="M569 1087q230 0 371 -165q129 -156 129 -394t-132 -398t-368 -159q-121 0 -214 44q-182 86 -252 297t-1 427t253 303q93 45 214 45zM569 78q88 0 156 36q135 71 184 229q25 77 29 157h-739q9 -176 107 -299t263 -123zM568 979.5q-152 -0.5 -246 -107.5t-117 -264h729
q-22 160 -118 266t-248 105.5z" />
    <glyph glyph-name="Obarreddieresiscyrillic" unicode="&#x4ea;" horiz-adv-x="1517" 
d="M508 1802h137v-207h-137v207zM868 1802h140v-207h-140v207zM70 730q0 321 179 541t510 221q330 1 517 -229q172 -210 172 -532t-172 -530q-190 -230 -518 -229t-508 219t-180 539zM760 88q262 0 400 178q140 178 149 430h-1100q9 -256 139 -421q150 -187 412 -187z
M758 1374q-248 0 -394 -172q-129 -151 -151 -387h1092q-21 235 -160 397t-387 162z" />
    <glyph glyph-name="obarreddieresiscyrillic" unicode="&#x4eb;" horiz-adv-x="1138" 
d="M319 1405h138v-207h-138v207zM680 1405h139v-207h-139v207zM569 1087q230 0 371 -165q129 -156 129 -394t-132 -398t-368 -159q-121 0 -214 44q-182 86 -252 297t-1 427t253 303q93 45 214 45zM569 78q88 0 156 36q135 71 184 229q25 77 29 157h-739q9 -176 107 -299
t263 -123zM568 979.5q-152 -0.5 -246 -107.5t-117 -264h729q-22 160 -118 266t-248 105.5z" />
    <glyph glyph-name="uni04EC" unicode="&#x4ec;" horiz-adv-x="1423" 
d="M459 1802h137v-207h-137v207zM819 1802h139v-207h-139v207zM684 88q110 0 208 43q199 88 279 313q41 113 46 252h-744v117h739q-20 250 -165 408q-145 153 -369 153q-180 0 -303 -94t-158 -260h-139q23 214 198 344t398 129q318 0 506 -229q174 -210 174 -544t-188 -542
q-90 -100 -213 -154t-263 -53q-266 0 -427 145t-197 392h137q52 -299 290 -389q81 -31 191 -31z" />
    <glyph glyph-name="uni04ED" unicode="&#x4ed;" 
d="M272 1405h138v-207h-138v207zM633 1405h139v-207h-139v207zM371 485v109h483q-16 180 -110 284t-248 103q-117 0 -194 -60t-105 -173h-134q29 160 142 250t293 89q221 0 356 -154t135 -407t-132 -404t-355 -151q-184 -1 -298 97t-147 274h129q29 -129 114 -197t208 -67
q154 0 245 108t101 299h-483z" />
    <glyph glyph-name="uni04EE" unicode="&#x4ee;" horiz-adv-x="1204" 
d="M262 -16q-74 0 -131 20v123q63 -23 145 -24t134.5 49t101.5 153l18 39l-542 1118h149l475 -970l463 970h148l-576 -1192q-119 -248 -265 -277q-46 -9 -120 -9zM266 1765h672v-92h-672v92z" />
    <glyph glyph-name="uni04EF" unicode="&#x4ef;" horiz-adv-x="948" 
d="M206 -281q94 0 144 99q14 31 31 67l45 119l-422 1053h137l348 -901l326 901h129l-459 -1217q-59 -138 -98 -172t-79 -45.5t-112 -9.5t-87 8v109q63 -11 97 -11zM137 1391h672v-93h-672v93z" />
    <glyph glyph-name="uni04F0" unicode="&#x4f0;" horiz-adv-x="1204" 
d="M262 -16q-74 0 -131 20v123q63 -23 145 -24t134.5 49t101.5 153l18 39l-542 1118h149l475 -970l463 970h148l-576 -1192q-119 -248 -265 -277q-46 -9 -120 -9zM352 1821h137v-207h-137v207zM713 1821h139v-207h-139v207z" />
    <glyph glyph-name="uni04F1" unicode="&#x4f1;" horiz-adv-x="948" 
d="M206 -281q94 0 144 99q14 31 31 67l45 119l-422 1053h137l348 -901l326 901h129l-459 -1217q-59 -138 -98 -172t-79 -45.5t-112 -9.5t-87 8v109q63 -11 97 -11zM223 1446h137v-207h-137v207zM584 1446h139v-207h-139v207z" />
    <glyph glyph-name="uni04F2" unicode="&#x4f2;" horiz-adv-x="1204" 
d="M262 -16q-74 0 -131 20v123q63 -23 145 -24t134.5 49t101.5 153l18 39l-542 1118h149l475 -970l463 970h148l-576 -1192q-119 -248 -265 -277q-46 -9 -120 -9zM889 1868h155l-258 -289h-104zM569 1868h156l-258 -289h-102z" />
    <glyph glyph-name="uni04F3" unicode="&#x4f3;" horiz-adv-x="948" 
d="M206 -281q94 0 144 99q14 31 31 67l45 119l-422 1053h137l348 -901l326 901h129l-459 -1217q-59 -138 -98 -172t-79 -45.5t-112 -9.5t-87 8v109q63 -11 97 -11zM729 1493h156l-258 -289h-105zM410 1493h155l-258 -289h-102z" />
    <glyph glyph-name="uni04F4" unicode="&#x4f4;" horiz-adv-x="1290" 
d="M574 725q144 0 430 59v678h139v-1462h-139v666q-100 -26 -250 -44t-199 -18q-282 0 -393 136q-78 96 -78 284v438h139v-430q-1 -129 41 -186t104 -89t206 -32zM395 1821h137v-207h-137v207zM756 1821h139v-207h-139v207z" />
    <glyph glyph-name="uni04F5" unicode="&#x4f5;" horiz-adv-x="1019" 
d="M432 397q-172 0 -259 78t-87 262v320h129v-334q0 -186 152 -205q41 -4 102 -4t153 20t148 44v479h129v-1057h-129v461q-166 -64 -338 -64zM260 1446h137v-207h-137v207zM621 1446h139v-207h-139v207z" />
    <glyph glyph-name="uni04F8" unicode="&#x4f8;" horiz-adv-x="1732" 
d="M147 1462h140v-618h510q205 0 319 -113t114 -309t-114 -309q-115 -113 -319 -113h-650v1462zM766 119q154 0 240 81t86 222t-86 222t-240 81h-479v-606h479zM1446 1462h139v-1462h-139v1462zM616 1821h138v-207h-138v207zM977 1821h139v-207h-139v207z" />
    <glyph glyph-name="uni04F9" unicode="&#x4f9;" horiz-adv-x="1366" 
d="M117 1057h129v-424h342q154 0 244 -82.5t90 -232.5t-90 -234t-244 -84h-471v1057zM246 524v-415h311q111 0 173 53t63 157q-2 205 -236 205h-311zM1120 1057h129v-1057h-129v1057zM432 1446h137v-207h-137v207zM793 1446h139v-207h-139v207z" />
    <glyph glyph-name="Aringbelow" unicode="&#x1e00;" horiz-adv-x="1290" 
d="M506 -313q0 -59 40 -99t99 -40t99 38q40 40 40 100t-40 100t-99 40t-99 -40t-40 -99zM645 -532q-91 0 -154 63t-63 157t62 155t154 62t156 -63t64 -155t-64 -155t-155 -64zM354 573h576l-283 750zM575 1462h156l574 -1462h-150l-178 455h-666l-176 -455h-147z" />
    <glyph glyph-name="aringbelow" unicode="&#x1e01;" 
d="M416 -342q0 -59 40 -99t99 -40t99 40t40 99t-40 99t-99 40t-99 -40t-40 -99zM338 -342q0 45 16 85t46 70t70 47t85 17t85 -17t70 -47t47 -70t17 -85t-17 -85t-47 -70t-70 -47t-85 -17t-85 17t-70 47t-46 70t-16 85zM531 1087q397 0 397 -339v-562q0 -78 76 -77q23 0 40 8
v-109q-46 -8 -89 -8q-122 0 -141 110q-5 34 -5 74h-4q-79 -114 -159 -163t-226 -50q-245 0 -327 169q-27 58 -27 154t49 158t130 95t182 46t174 21t104 14q92 19 93 126q2 185 -168 216q-50 9 -108 9q-122 0 -200 -58t-82 -188h-129q23 354 420 354zM799 578h-4
q-15 -30 -103 -46t-175 -27q-322 -41 -322 -203q1 -107 69 -166q69 -58 154 -58q169 0 275 91t106 241v168z" />
    <glyph glyph-name="Bdotaccent" unicode="&#x1e02;" horiz-adv-x="1366" 
d="M649 1565v207h139v-207h-139zM287 821h479q158 0 243 70t87 178q0 274 -330 274h-479v-522zM147 1462h619q326 0 430 -187q39 -69 39 -149q0 -206 -151 -307q-46 -31 -103 -43v-4q141 -18 225 -116t84 -240q0 -315 -320 -394q-85 -22 -204 -22h-619v1462zM766 119
q385 0 385 301q0 141 -99 212t-286 70h-479v-583h479z" />
    <glyph glyph-name="bdotaccent" unicode="&#x1e03;" horiz-adv-x="1175" 
d="M541 1565v207h139v-207h-139zM123 1462h129v-606h4q38 107 139 169t225 62q232 1 355 -159t123 -400t-122 -398t-353 -159q-129 -1 -231 59t-146 171h-4v-201h-119v1462zM969 528q0 185 -88 318t-267 133t-279 -143q-83 -119 -83 -308q0 -298 198 -410q72 -40 168 -40
t162 40q129 79 169 248q20 80 20 162z" />
    <glyph glyph-name="Bdotbelow" unicode="&#x1e04;" horiz-adv-x="1366" 
d="M649 -301v207h139v-207h-139zM287 821h479q158 0 243 70t87 178q0 274 -330 274h-479v-522zM147 1462h619q326 0 430 -187q39 -69 39 -149q0 -206 -151 -307q-46 -31 -103 -43v-4q141 -18 225 -116t84 -240q0 -315 -320 -394q-85 -22 -204 -22h-619v1462zM766 119
q385 0 385 301q0 141 -99 212t-286 70h-479v-583h479z" />
    <glyph glyph-name="bdotbelow" unicode="&#x1e05;" horiz-adv-x="1175" 
d="M541 -330v207h139v-207h-139zM123 1462h129v-606h4q38 107 139 169t225 62q232 1 355 -159t123 -400t-122 -398t-353 -159q-129 -1 -231 59t-146 171h-4v-201h-119v1462zM969 528q0 185 -88 318t-267 133t-279 -143q-83 -119 -83 -308q0 -298 198 -410q72 -40 168 -40
t162 40q129 79 169 248q20 80 20 162z" />
    <glyph glyph-name="Blinebelow" unicode="&#x1e06;" horiz-adv-x="1366" 
d="M383 -186v92h672v-92h-672zM287 821h479q158 0 243 70t87 178q0 274 -330 274h-479v-522zM147 1462h619q326 0 430 -187q39 -69 39 -149q0 -206 -151 -307q-46 -31 -103 -43v-4q141 -18 225 -116t84 -240q0 -315 -320 -394q-85 -22 -204 -22h-619v1462zM766 119
q385 0 385 301q0 141 -99 212t-286 70h-479v-583h479z" />
    <glyph glyph-name="blinebelow" unicode="&#x1e07;" horiz-adv-x="1175" 
d="M274 -215v92h672v-92h-672zM123 1462h129v-606h4q38 107 139 169t225 62q232 1 355 -159t123 -400t-122 -398t-353 -159q-129 -1 -231 59t-146 171h-4v-201h-119v1462zM969 528q0 185 -88 318t-267 133t-279 -143q-83 -119 -83 -308q0 -298 198 -410q72 -40 168 -40
t162 40q129 79 169 248q20 80 20 162z" />
    <glyph glyph-name="Ccedillaacute" unicode="&#x1e08;" horiz-adv-x="1441" 
d="M756 1595h-105l215 289h160zM689 -340q128 0 128 88q-1 76 -105 78q-52 0 -87 -16l-33 30l104 135q-294 23 -464 248q-154 204 -154 516t179 532t511 222q219 0 389 -126t199 -347h-139q-36 168 -162 262t-279 93q-282 -2 -429 -203q-130 -177 -130 -440t130 -442
q149 -202 421 -202q196 0 322 134t147 335h139q-28 -272 -190 -429t-418 -157h-2l-68 -88q154 25 214 -51q24 -29 24 -76q0 -88 -68 -132t-138 -44q-128 0 -212 43l29 66q79 -29 142 -29z" />
    <glyph glyph-name="ccedillaacute" unicode="&#x1e09;" 
d="M600 1198h-104l215 289h159zM748 -244q0 -88 -68 -132t-138 -44q-128 0 -212 43l28 66q78 -29 142 -29q129 0 129 88q0 76 -105 78q-51 0 -88 -16l-33 30l105 135q-208 23 -324 179t-115 384.5t134 388.5t366 160q170 0 288 -90t140 -272h-129q-58 254 -299 254
q-174 0 -273 -135.5t-98 -315.5t99 -315t272 -135q120 0 208 86t100 215h129q-27 -193 -141 -298t-287 -110l-68 -88q154 25 214 -51q24 -29 24 -76z" />
    <glyph glyph-name="Ddotaccent" unicode="&#x1e0a;" horiz-adv-x="1402" 
d="M666 1565v207h139v-207h-139zM147 1462h506q334 -8 503 -187t169 -544t-169 -544t-503 -187h-506v1462zM287 119h297q318 1 460 143t142 470t-144 470t-458 141h-297v-1224z" />
    <glyph glyph-name="ddotaccent" unicode="&#x1e0b;" horiz-adv-x="1175" 
d="M496 1565v207h139v-207h-139zM1053 0h-119v201h-4q-41 -104 -147.5 -166t-228.5 -63t-211 43q-174 86 -237 299q-29 101 -28 214q0 241 122 400t353 159q192 0 308 -131q38 -43 59 -100h4v606h129v-1462zM207 528q0 -294 188 -410q66 -40 163 -40t168 40q194 109 196 409
t-196 412q-71 40 -168 40q-177 0 -270 -143q-81 -122 -81 -308z" />
    <glyph glyph-name="Ddotbelow" unicode="&#x1e0c;" horiz-adv-x="1402" 
d="M666 -301v207h139v-207h-139zM147 1462h506q334 -8 503 -187t169 -544t-169 -544t-503 -187h-506v1462zM287 119h297q318 1 460 143t142 470t-144 470t-458 141h-297v-1224z" />
    <glyph glyph-name="ddotbelow" unicode="&#x1e0d;" horiz-adv-x="1175" 
d="M496 -330v207h139v-207h-139zM1053 0h-119v201h-4q-41 -104 -147.5 -166t-228.5 -63t-211 43q-174 86 -237 299q-29 101 -28 214q0 241 122 400t353 159q192 0 308 -131q38 -43 59 -100h4v606h129v-1462zM207 528q0 -294 188 -410q66 -40 163 -40t168 40q194 109 196 409
t-196 412q-71 40 -168 40q-177 0 -270 -143q-81 -122 -81 -308z" />
    <glyph glyph-name="Dlinebelow" unicode="&#x1e0e;" horiz-adv-x="1402" 
d="M399 -186v92h672v-92h-672zM147 1462h506q334 -8 503 -187t169 -544t-169 -544t-503 -187h-506v1462zM287 119h297q318 1 460 143t142 470t-144 470t-458 141h-297v-1224z" />
    <glyph glyph-name="dlinebelow" unicode="&#x1e0f;" horiz-adv-x="1175" 
d="M229 -215v92h672v-92h-672zM1053 0h-119v201h-4q-41 -104 -147.5 -166t-228.5 -63t-211 43q-174 86 -237 299q-29 101 -28 214q0 241 122 400t353 159q192 0 308 -131q38 -43 59 -100h4v606h129v-1462zM207 528q0 -294 188 -410q66 -40 163 -40t168 40q194 109 196 409
t-196 412q-71 40 -168 40q-177 0 -270 -143q-81 -122 -81 -308z" />
    <glyph glyph-name="Dcommaaccent" unicode="&#x1e10;" horiz-adv-x="1402" 
d="M827 -315q0 -149 -101 -238q-34 -29 -81 -41v88q45 13 73 76t23 117h-86v217h172v-219zM147 1462h506q334 -8 503 -187t169 -544t-169 -544t-503 -187h-506v1462zM287 119h297q318 1 460 143t142 470t-144 470t-458 141h-297v-1224z" />
    <glyph glyph-name="dcommaaccent" unicode="&#x1e11;" horiz-adv-x="1175" 
d="M657 -344q0 -149 -101 -238q-34 -29 -81 -41v88q45 13 73 76t23 117h-86v217h172v-219zM1053 0h-119v201h-4q-41 -104 -147.5 -166t-228.5 -63t-211 43q-174 86 -237 299q-29 101 -28 214q0 241 122 400t353 159q192 0 308 -131q38 -43 59 -100h4v606h129v-1462zM207 528
q0 -294 188 -410q66 -40 163 -40t168 40q194 109 196 409t-196 412q-71 40 -168 40q-177 0 -270 -143q-81 -122 -81 -308z" />
    <glyph glyph-name="Dcircumflexbelow" unicode="&#x1e12;" horiz-adv-x="1402" 
d="M1038 -383h-133l-176 209l-180 -209h-117l232 289h141zM147 1462h506q334 -8 503 -187t169 -544t-169 -544t-503 -187h-506v1462zM287 119h297q318 1 460 143t142 470t-144 470t-458 141h-297v-1224z" />
    <glyph glyph-name="dcircumflexbelow" unicode="&#x1e13;" horiz-adv-x="1175" 
d="M868 -412h-133l-176 209l-180 -209h-117l232 289h141zM1053 0h-119v201h-4q-41 -104 -147.5 -166t-228.5 -63t-211 43q-174 86 -237 299q-29 101 -28 214q0 241 122 400t353 159q192 0 308 -131q38 -43 59 -100h4v606h129v-1462zM207 528q0 -294 188 -410q66 -40 163 -40
t168 40q194 109 196 409t-196 412q-71 40 -168 40q-177 0 -270 -143q-81 -122 -81 -308z" />
    <glyph glyph-name="Emacrongrave" unicode="&#x1e14;" horiz-adv-x="1214" 
d="M338 2048h158l215 -289h-105zM322 1565v92h671v-92h-671zM147 1462h1010v-119h-870v-528h815v-119h-815v-577h880v-119h-1020v1462z" />
    <glyph glyph-name="emacrongrave" unicode="&#x1e15;" 
d="M256 1679h158l215 -288h-105zM207 1198v92h672v-92h-672zM546.5 978q-148.5 0 -240.5 -110t-107 -266h684q-4 152 -96 264t-240.5 112zM199 494q0 -263 190 -377q66 -39 158 -39q141 0 221 74t111 196h129q-41 -180 -151 -278t-310 -99q-241 0 -360 160.5t-118 392.5
t113 388q126 175 364 175t364 -185q111 -164 102 -408h-813z" />
    <glyph glyph-name="Emacronacute" unicode="&#x1e16;" horiz-adv-x="1214" 
d="M657 1765h-104l215 289h160zM322 1565v92h671v-92h-671zM147 1462h1010v-119h-870v-528h815v-119h-815v-577h880v-119h-1020v1462z" />
    <glyph glyph-name="emacronacute" unicode="&#x1e17;" 
d="M565 1378h-104l215 289h160zM207 1198v92h672v-92h-672zM546.5 978q-148.5 0 -240.5 -110t-107 -266h684q-4 152 -96 264t-240.5 112zM199 494q0 -263 190 -377q66 -39 158 -39q141 0 221 74t111 196h129q-41 -180 -151 -278t-310 -99q-241 0 -360 160.5t-118 392.5
t113 388q126 175 364 175t364 -185q111 -164 102 -408h-813z" />
    <glyph glyph-name="Ecircumflexbelow" unicode="&#x1e18;" horiz-adv-x="1214" 
d="M961 -383h-134l-176 209l-180 -209h-117l232 289h141zM147 1462h1010v-119h-870v-528h815v-119h-815v-577h880v-119h-1020v1462z" />
    <glyph glyph-name="ecircumflexbelow" unicode="&#x1e19;" 
d="M846 -412h-133l-176 209l-181 -209h-116l231 289h141zM546.5 978q-148.5 0 -240.5 -110t-107 -266h684q-4 152 -96 264t-240.5 112zM199 494q0 -263 190 -377q66 -39 158 -39q141 0 221 74t111 196h129q-41 -180 -151 -278t-310 -99q-241 0 -360 160.5t-118 392.5
t113 388q126 175 364 175t364 -185q111 -164 102 -408h-813z" />
    <glyph glyph-name="Etildebelow" unicode="&#x1e1a;" horiz-adv-x="1214" 
d="M514 -196q-38 0 -67.5 -26t-28.5 -77h-80q14 127 109 179q68 36 139.5 9t125.5 -54t83 -28q77 0 106 99h78q-22 -130 -105 -176t-227 28q-35 18 -65 32t-68 14zM147 1462h1010v-119h-870v-528h815v-119h-815v-577h880v-119h-1020v1462z" />
    <glyph glyph-name="etildebelow" unicode="&#x1e1b;" 
d="M673 -317q-54 0 -142 46t-128 47t-70 -26t-30 -78h-80q13 124 110 180q31 16 83 16t114 -30t92 -44t58 -15q80 0 106 98h78q-22 -130 -106 -177q-31 -17 -85 -17zM546.5 978q-148.5 0 -240.5 -110t-107 -266h684q-4 152 -96 264t-240.5 112zM199 494q0 -263 190 -377
q66 -39 158 -39q141 0 221 74t111 196h129q-41 -180 -151 -278t-310 -99q-241 0 -360 160.5t-118 392.5t113 388q126 175 364 175t364 -185q111 -164 102 -408h-813z" />
    <glyph glyph-name="Ecedillabreve" unicode="&#x1e1c;" horiz-adv-x="1214" 
d="M673 1657q58 0 122 44q63 44 75 124h80q-16 -123 -95 -192t-203 -69t-200 68t-87 193h79q2 -41 21 -73q53 -95 208 -95zM619 -340q129 0 129 88q0 76 -106 78q-52 0 -87 -16l-33 30l125 160h-500v1462h1010v-119h-870v-528h815v-119h-815v-577h880v-119h-448l-90 -117
q151 25 214 -51q23 -29 23 -76q0 -88 -68 -132t-137 -44q-130 0 -210 43l26 66q79 -29 142 -29z" />
    <glyph glyph-name="ecedillabreve" unicode="&#x1e1d;" 
d="M558 1290q58 0 122 44q63 44 76 124h80q-16 -124 -96 -192t-203 -68t-200 68t-87 192h80q2 -41 20 -73q53 -95 208 -95zM546.5 978q-148.5 0 -240.5 -110t-107 -266h684q-4 152 -96 264t-240.5 112zM633 -278q0 82 -105 83q-51 0 -88 -16l-32 31l118 152q-225 6 -342 162
t-115 389q1 233 113 389q126 175 364 175t364 -185q111 -164 102 -408h-813q0 -263 190 -377q66 -39 158 -39q141 0 221 74t111 196h129q-80 -351 -409 -375l-85 -110q154 25 214 -51q24 -29 24 -76q0 -88 -68 -132t-138 -44q-130 0 -210 43l26 65q76 -28 140 -28
q131 0 131 82z" />
    <glyph glyph-name="Fdotaccent" unicode="&#x1e1e;" horiz-adv-x="1099" 
d="M541 1565v207h139v-207h-139zM147 1462h928v-119h-788v-528h700v-119h-700v-696h-140v1462z" />
    <glyph glyph-name="fdotaccent" unicode="&#x1e1f;" horiz-adv-x="530" 
d="M215 1565v207h139v-207h-139zM446 1354q-36 0 -65 -16q-53 -30 -57 -109q-2 -37 -2 -80v-92h208v-109h-208v-948h-129v948h-181v109h181v96q0 154 49 223q62 88 207 86q48 0 108 -8v-111q-75 11 -111 11z" />
    <glyph glyph-name="Gmacron" unicode="&#x1e20;" horiz-adv-x="1517" 
d="M434 1599v93h672v-93h-672zM1397 0h-101l-18 266h-4q-138 -292 -506 -294q-172 0 -302 62t-216 166q-172 209 -172 530t172 533q86 105 216 167t274 63q393 0 563 -274q55 -90 75 -211h-139q-13 138 -144 252t-327 114q-274 0 -421 -202q-130 -177 -130 -440t130 -442
q149 -202 421 -202q238 0 374 149t132 388h-498v118h621v-743z" />
    <glyph glyph-name="gmacron" unicode="&#x1e21;" horiz-adv-x="1138" 
d="M240 1204v92h671v-92h-671zM1016 86q0 -375 -251 -471q-89 -35 -193 -35q-200 0 -326 82t-137 238h129q27 -162 204 -200q51 -11 105 -11q180 0 260 102t80 295v143h-4q-45 -97 -132 -157t-209 -60q-234 -2 -354 150t-119 386t128 388t350 151q172 0 283 -131
q34 -39 53 -82h4v183h129v-971zM541 121q162 0 254 123t92 298t-85 306t-256 131t-265 -137q-82 -116 -82 -298t84 -293q96 -130 258 -130z" />
    <glyph glyph-name="Hdotaccent" unicode="&#x1e22;" horiz-adv-x="1441" 
d="M651 1565v207h140v-207h-140zM147 1462h140v-635h868v635h139v-1462h-139v709h-868v-709h-140v1462z" />
    <glyph glyph-name="hdotaccent" unicode="&#x1e23;" horiz-adv-x="1099" 
d="M479 1565v207h139v-207h-139zM121 1462h129v-588h4q37 96 131 154t206 59q311 0 370 -237q18 -76 18 -170v-680h-129v659q0 320 -268 320q-150 0 -240 -102t-92 -261v-616h-129v1462z" />
    <glyph glyph-name="Hdotbelow" unicode="&#x1e24;" horiz-adv-x="1441" 
d="M651 -301v207h140v-207h-140zM147 1462h140v-635h868v635h139v-1462h-139v709h-868v-709h-140v1462z" />
    </font>
</defs>
</svg>
